Завантажити та скачати торренти українською


Hell:ON - Strong Enough (Remastered) (2011/2006) [FLAC] | Thrash/Death Metal

Нові коментарі

Нова тема   Відповісти
Останній раз роздавалося alenas2001 (2015-06-05)
Автор Повідомлення
AND-reX 
Новенький


З нами з: 05.04.14
Востаннє: 01.12.16
Повідомлень: 15

2015-02-15 13:39  
Hell:ON - Strong Enough (Remastered) (2011/2006) [FLAC] | Thrash/Death Metal

Hell:ON - Strong Enough (Remastered) (2011/2006) [FLAC] | Thrash/Death Metal


Стиль: Thrash/Death Metal
Країна, місто: Україна, Запоріжжя
Сайти: Офіційний сайт
Видавець: Nocturnus Records
Виконавці:
Олександр Баєв - вокал
Антон Ворожцов - гітара
Олексій Пасько - гітара
Олександр Сітало - бас-гітара
Олег Таланів - ударні
Пісні:
    01. Endless Shape
    02. Creatures Of My Mind
    03. The Flame That Dwells Inside
    04. Hear The Voice
    05. New Gods
    06. Purification By Pain
    07. Fake (Beyond The Fake - EP)
    08. To Become Alive (Beyond The Fake - EP)
    09. The Door (Beyond The Fake - EP)

Тривалість: 00:43:50
Мова: англійська
Аудіо-кодек: FLAC
Бітрейт: 1046 кб/с
Джерело: Інтернет
"Лог:"

Exact Audio Copy V1.0 beta 3 from 29. August 2011

EAC extraction logfile from 19. September 2013, 18:16

Hell:On / Strong Enough 2006 + bonus

Used drive : HL-DT-STDVDRAM GH22NS50 Adapter: 1 ID: 1

Read mode : Secure
Utilize accurate stream : Yes
Defeat audio cache : Yes
Make use of C2 pointers : No

Read offset correction : 667
Overread into Lead-In and Lead-Out : No
Fill up missing offset samples with silence : Yes
Delete leading and trailing silent blocks : No
Null samples used in CRC calculations : Yes
Used interface : Native Win32 interface for Win NT & 2000

Used output format : User Defined Encoder
Selected bitrate : 128 kBit/s
Quality : High
Add ID3 tag : No
Command line compressor : C:\Program Files\Exact Audio Copy\Flac\flac.exe
Additional command line options : -V -8 -T "Genre=%genre%" -T "Artist=%artist%" -T "Title=%title%" -T "Album=%albumtitle%" -T "Date=%year%" -T "Tracknumber=%tracknr%" -T "Comment=%comment%" %source%

TOC of the extracted CD

Track | Start | Length | Start sector | End sector
---------------------------------------------------------
1 | 0:00.00 | 4:38.54 | 0 | 20903
2 | 4:38.54 | 6:11.22 | 20904 | 48750
3 | 10:50.01 | 5:23.55 | 48751 | 73030
4 | 16:13.56 | 4:39.16 | 73031 | 93971
5 | 20:52.72 | 4:46.55 | 93972 | 115476
6 | 25:39.52 | 4:38.50 | 115477 | 136376
7 | 30:18.27 | 4:02.52 | 136377 | 154578
8 | 34:21.04 | 4:38.00 | 154579 | 175428
9 | 38:59.04 | 4:58.00 | 175429 | 197778

Range status and errors

Selected range

Filename D:\Сircle of Friends\Atreyu\Hell-On - Strong Enough 2006 + bonus.wav

Peak level 99.9 %
Extraction speed 1.6 X
Range quality 99.9 %
Test CRC 117C995E
Copy CRC 117C995E
Copy OK

No errors occurred

AccurateRip summary

Track 1 not present in database
Track 2 not present in database
Track 3 not present in database
Track 4 not present in database
Track 5 not present in database
Track 6 not present in database
Track 7 not present in database
Track 8 not present in database
Track 9 not present in database

None of the tracks are present in the AccurateRip database

End of status report

---- CUETools DB Plugin V2.1.4

[CTDB TOCID: BBUKFx7Xrc5WLANlT8F30C8_uB4-] disk not present in database
Submit result: BBUKFx7Xrc5WLANlT8F30C8_uB4- has been uploaded

==== Log checksum 4B2A2D89C55A7124B2A63D44427606C23387C8F8598477BFF5C84B680273AA1F ====
Якщо Ви справді бажаєте підтримати українське - після прослуховування, якщо музика вам сподобалась, придбайте ліцензійний диск. Підтримаймо вітчизняних виконавців!


Срібний реліз (на рейтинг впливає 50% завантаженого)
 Трекер:    Зареєстрований   

Завантажити / скачати українську музику



відео для новачків



 Зареєстрований:   2015-02-15 13:39
 Розмір:   378 MB 
 Оцінка музики:   10/10 (Голосів: 3)
   
kurtol 
Новенький


З нами з: 25.07.09
Востаннє: 03.12.16
Повідомлень: 2

2015-03-26 18:45  
сід повернися)
AND-reX 
Новенький


З нами з: 05.04.14
Востаннє: 01.12.16
Повідомлень: 15

2015-03-27 12:28  
kurtol

Я вже тут ))

Ваш часовий пояс: GMT + 2 Години

Нова тема   Відповісти