Завантажити та скачати торренти українською


Hell:ON - Re:Born (2008) [FLAC] | Thrash/Death Metal

Нові коментарі

Нова тема   Відповісти
Останній раз роздавалося toxairuna (2016-11-30)
Автор Повідомлення
AND-reX 
Новенький


З нами з: 05.04.14
Востаннє: 01.12.16
Повідомлень: 15

2015-02-15 13:20  
Hell:ON - Re:Born (2008) [FLAC] | Thrash/Death Metal

Hell:ON - Re:Born (2008) [FLAC] | Thrash/Death Metal


Стиль: Thrash/Death Metal
Країна, місто: Україна, Запоріжжя
Сайти: Офіційний сайт
Видавець: COMP/EMI
Виконавці:
Олександр Баєв - вокал
Антон Ворожцов - гітара
Олексій Пасько - гітара
Олександр Сітало - бас-гітара
Олег Таланів - ударні
Пісні:
    01. Fake
    02. Snatch The Mask
    03. Tame A Beast
    04. Become Alive
    05. Door
    06. Wake Up
    07. Warrior's Way
    08. Haunted House

Тривалість: 00:32:51
Мова: англійська
Аудіо-кодек: FLAC
Бітрейт: 1092 кб/с
Джерело: Інтернет
"Лог:"

Exact Audio Copy V1.0 beta 3 from 29. August 2011

EAC extraction logfile from 19. September 2013, 19:40

Hell:On / Re:Born

Used drive : HL-DT-STDVDRAM GH22NS50 Adapter: 1 ID: 1

Read mode : Secure
Utilize accurate stream : Yes
Defeat audio cache : Yes
Make use of C2 pointers : No

Read offset correction : 667
Overread into Lead-In and Lead-Out : No
Fill up missing offset samples with silence : Yes
Delete leading and trailing silent blocks : No
Null samples used in CRC calculations : Yes
Used interface : Native Win32 interface for Win NT & 2000

Used output format : User Defined Encoder
Selected bitrate : 128 kBit/s
Quality : High
Add ID3 tag : No
Command line compressor : C:\Program Files\Exact Audio Copy\Flac\flac.exe
Additional command line options : -V -8 -T "Genre=%genre%" -T "Artist=%artist%" -T "Title=%title%" -T "Album=%albumtitle%" -T "Date=%year%" -T "Tracknumber=%tracknr%" -T "Comment=%comment%" %source%

TOC of the extracted CD

Track | Start | Length | Start sector | End sector
---------------------------------------------------------
1 | 0:00.00 | 4:01.01 | 0 | 18075
2 | 4:01.01 | 3:31.74 | 18076 | 33974
3 | 7:33.00 | 4:57.13 | 33975 | 56262
4 | 12:30.13 | 4:35.12 | 56263 | 76899
5 | 17:05.25 | 5:07.17 | 76900 | 99941
6 | 22:12.42 | 3:04.05 | 99942 | 113746
7 | 25:16.47 | 3:39.29 | 113747 | 130200
8 | 28:56.01 | 3:57.69 | 130201 | 148044
9 | 35:25.70 | 29:58.50 | 159445 | 294344

Range status and errors

Selected range

Filename D:\Сircle of Friends\Atreyu\Hell-On\Hell-On - ReBorn\Hell-On - Re-Born.wav

Peak level 98.8 %
Extraction speed 1.5 X
Range quality 100.0 %
Test CRC 684AF33D
Copy CRC 684AF33D
Copy OK

No errors occurred

AccurateRip summary

Track 1 not present in database
Track 2 not present in database
Track 3 not present in database
Track 4 not present in database
Track 5 not present in database
Track 6 not present in database
Track 7 not present in database
Track 8 not present in database

None of the tracks are present in the AccurateRip database

End of status report

---- CUETools DB Plugin V2.1.4

[CTDB TOCID: deBD.9MQ17By9QD7garzAUQVwwY-] disk not present in database
Submit result: deBD.9MQ17By9QD7garzAUQVwwY- has been uploaded

==== Log checksum A4E67AD6F6AB40E39D752ADA730875E3A312050BC195F4F9125E546AE9641594 ====
Якщо Ви справді бажаєте підтримати українське - після прослуховування, якщо музика вам сподобалась, придбайте ліцензійний диск. Підтримаймо вітчизняних виконавців!


Срібний реліз (на рейтинг впливає 50% завантаженого)
 Трекер:    Зареєстрований   

Завантажити / скачати українську музику



відео для новачків



 Зареєстрований:   2015-02-15 16:08
 Розмір:   561 MB 
 Оцінка музики:   10/10 (Голосів: 1)
   
ssTAss 
Модератор музики


З нами з: 05.07.08
Востаннє: 03.12.16
Повідомлень: 10930

2015-02-15 14:59  
в роздачі є два відео
прохання дооформити згідно правил
Цитата:
5.2 Якщо в релізі присутнє відео (кліпи, що входили до альбому/ів), до нього теж потрібно додати технічні характеристики:
Код:
Тривалість:
Якість:
кодек:
розмір кадру:
бітрейт: кб/с

Аудіо:
мова:
кодек:
бітрейт: кб/с
Скріншоти:
[img]посилання на файл скріншота 1[/img] [img]посилання на файл скріншота 2[/img]

http://toloka.to/t223

AND-reX 
Новенький


З нами з: 05.04.14
Востаннє: 01.12.16
Повідомлень: 15

2015-02-15 15:22  
ssTAss

Прибрав з роздачі відео, перевірте будь ласка, а то тепер я не можу завантажити торент-файл.

ssTAss 
Модератор музики


З нами з: 05.07.08
Востаннє: 03.12.16
Повідомлень: 10930

2015-02-15 15:46  
AND-reX написано:
Прибрав з роздачі відео

не варто було, вони ж були на диску
якщо так важко, то допоможу з оформленням
перезалийте торент з відео

AND-reX 
Новенький


З нами з: 05.04.14
Востаннє: 01.12.16
Повідомлень: 15

2015-02-15 15:58  
ssTAss

перезалив, додав торент з відео
Якщо Вам не важко то допоможіть правильно оформити тех. характеристики відео))

Ваш часовий пояс: GMT + 2 Години

Нова тема   Відповісти