Завантажити та скачати торренти українською


Вогнем і мечем / Ogniem i mieczem (1999) 1080р Ukr/Pol | Sub Ukr

Нові коментарі

Нова тема   Відповісти
Автор Повідомлення
Beffis 
Модератор DVD


З нами з: 17.09.09
Востаннє: 10.12.16
Повідомлень: 339

2015-02-15 13:14  
Вогнем і мечем / Ogniem i mieczem (1999) 1080р Ukr/Pol | Sub Ukr

Вогнем і мечем / Ogniem i mieczem (1999) 1080р Ukr/Pol | Sub Ukr


Жанр: історичний, драма
Країна: Польща



Кінокомпанія: Zodiak
Режисер: Єжи Гоффман
Актори: Ізабелла Скорупко, Міхал Жебровський, Олександр Домогаров, Богдан Ступка, Анджей Северин, Руслана Писанка

Сюжет:
Події відбуваються в роки війни, в межах однієї з найбільших, на той час, імперій в Європі – Королівства Польського і Великого Князівства Литовського. І цілком очевидним є те, що події того періоду трактувалися і трактуються з певної позиції національних інтересів, які у протилежних сторін є відмінними (різними). А коли історичні події лягають в основу художнього твору то набувають зовсім іншого забарвлення, часами просто до не впізнанности. Саме так сталося і з романом Г.Сінкевича "Вогнем і Мечем".

Романтичне кохання Гелени Курцевич (з роду Рюриковичів) і Яна Скшетульського (польского шляхтича), як основна сюжетна лінія, змальовується на фоні подій національно-визвольної війни українського народу, або з другої точки зору "бунту селян (холопів) ", та "розбійницьких походів” козаків, проти польської шляхти.



Тривалість: 02:55:11
Якість:
Відео:
кодек:
розмір кадру: 1920x1080
бітрейт: 12 700 кб/с

Аудіо # 1:
мова: українська
переклад: багатоголосий закадровий
кодек: 2.0
бітрейт: 320 кб/с

Аудіо # 2:
мова: польська
переклад: оригінал
кодек: 5.1
бітрейт: 384 кб/с

Субтитри:
мова: українська
тип: пререндерні
формат: PGS
MediaInfo
General
Unique ID : 208650086803745119661970687024226964727 (0x9CF88B859B6C48CA8EEF073915B514F7)
Complete name : D:\Ogniem i mieczem (1999) 1080р [HURTOM] by Beffis.mkv
Format : Matroska
Format version : Version 4 / Version 2
File size : 16.8 GiB
Duration : 2h 55mn
Overall bit rate : 13.7 Mbps
Movie name : Rip by prishel
Encoded date : UTC 2015-02-14 08:40:57
Writing application : mkvmerge v7.5.0 ('Glass Culture') 64bit built on Jan 4 2015 16:48:44
Writing library : libebml v1.3.1 + libmatroska v1.4.2
DURATION : 02:55:12.032000000
NUMBER_OF_FRAMES : 328501
NUMBER_OF_BYTES : 504577536
_STATISTICS_WRITING_APP : mkvmerge v7.5.0 ('Glass Culture') 64bit built on Jan 4 2015 16:48:44
_STATISTICS_WRITING_DATE_UTC : 2015-02-14 08:40:57
_STATISTICS_TAGS : BPS DURATION NUMBER_OF_FRAMES NUMBER_OF_BYTES

Video
ID : 1
Format : AVC
Format/Info : Advanced Video Codec
Format profile : [email protected]
Format settings, CABAC : Yes
Format settings, ReFrames : 3 frames
Codec ID : V_MPEG4/ISO/AVC
Duration : 2h 55mn
Bit rate : 12.7 Mbps
Width : 1 920 pixels
Height : 1 080 pixels
Display aspect ratio : 16:9
Frame rate mode : Constant
Frame rate : 25.000 fps
Standard : PAL
Color space : YUV
Chroma subsampling : 4:2:0
Bit depth : 8 bits
Scan type : Progressive
Bits/(Pixel*Frame) : 0.246
Stream size : 15.6 GiB (93%)
Language : English
Default : Yes
Forced : No
Color primaries : BT.709
Transfer characteristics : BT.709
Matrix coefficients : BT.709
Color range : Limited

Audio #1
ID : 2
Format : AC-3
Format/Info : Audio Coding 3
Format profile : Dolby Digital
Mode extension : CM (complete main)
Format settings, Endianness : Big
Codec ID : A_AC3
Duration : 2h 55mn
Bit rate mode : Constant
Bit rate : 320 Kbps
Channel(s) : 2 channels
Channel positions : Front: L R
Sampling rate : 48.0 KHz
Bit depth : 16 bits
Compression mode : Lossy
Stream size : 401 MiB (2%)
Language : Ukrainian
Default : Yes
Forced : No

Audio #2
ID : 3
Format : AC-3
Format/Info : Audio Coding 3
Mode extension : CM (complete main)
Format settings, Endianness : Big
Codec ID : A_AC3
Duration : 2h 55mn
Bit rate mode : Constant
Bit rate : 384 Kbps
Channel(s) : 6 channels
Channel positions : Front: L C R, Side: L R, LFE
Sampling rate : 48.0 KHz
Bit depth : 16 bits
Compression mode : Lossy
Stream size : 481 MiB (3%)
Language : Polish
Default : No
Forced : No

Text
ID : 4
Format : PGS
Muxing mode : zlib
Codec ID : S_HDMV/PGS
Codec ID/Info : The same subtitle format used on BDs/HD-DVDs
Language : Ukrainian
Default : No
Forced : No
Скріншоти
Джерело:
Особиста оцінка: 10 - без зайвих вагань рекомендую всім!


Срібний реліз (на рейтинг впливає 50% завантаженого)
 Трекер:    Зареєстрований   

Завантажити / скачати фільм українською



відео для новачків



 Зареєстрований:   2015-02-15 13:14
 Розмір:   16.78 GB 
 Оцінка фільму:   9.8/10 (Голосів: 10)
   
Інші релізи
   Вогнем і мечем / Ogniem i mieczem (1999) 1080i Ukr/Pol достр  3 / 1   9.75 GB   2014-09-12 19:16 
   Вогнем і мечем / Ogniem i mieczem (1999) 720p UKR/POL | Sub POL xfsthe  10 / 1   5.58 GB   2011-11-25 04:30 
   Вогнем і мечем / Ogniem i mieczem (1999) AngryBirdsUA  8 / 2   2.58 GB   2011-11-20 15:09 
   Вогнем і мечем / Ogniem i mieczem (1999) weber  10 / 0   2.92 GB   2009-01-02 12:58 
   Вогнем і мечем / Ogniem i mieczem (1999) DVD-9 Ukr | Sub Ukr/Eng weber  2 / 0   6.83 GB   2008-12-30 18:03 
igor911 
Відео Гуртом
Відео Гуртом


З нами з: 18.01.08
Востаннє: 10.12.16
Повідомлень: 5217

2015-02-15 14:06  
Кращого ріпу не було? Навіть чорні смуги зверху-знизу-зправа не обрізані.
Beffis 
Модератор DVD


З нами з: 17.09.09
Востаннє: 10.12.16
Повідомлень: 339

2015-02-15 14:58  
igor911 написано:
Кращого ріпу не було? Навіть чорні смуги зверху-знизу-зправа не обрізані.

небуло вибачай

Beffis 
Модератор DVD


З нами з: 17.09.09
Востаннє: 10.12.16
Повідомлень: 339

2015-02-15 19:22  
Не йдіть будь-ласка з завантаження в мене проблеми з провайдером,після вирішення проблеми завантаження обовязково відбудеться.
mr.killer 
Свій


З нами з: 11.08.10
Востаннє: 08.12.16
Повідомлень: 146

2015-08-30 10:09  
дякую за фільм, але якість звичайно не тяне на HD
Ваш часовий пояс: GMT + 2 Години

Нова тема   Відповісти