Завантажити та скачати торренти українською


Місто Ембер / City of Ember (2008) 720p 2xUkr/Eng | Sub Ukr/Eng

Нові коментарі

Нова тема   Відповісти
Автор Повідомлення
Anonymous 







2015-02-14 19:56  
Місто Ембер / City of Ember (2008) 720p 2xUkr/Eng | Sub Ukr/Eng



Альтернативні постери







Жанр: фантастика, фентезі, пригодницький, сімейний
Країна: США



Кінокомпанія: Playtone, Walden Media
Режисер: Гіл Кінан / Gil Kenan
Актори: Девід Раял / David Ryall, Йен МакЕлхінні / Ian McElhinney, Гарі Тредевей / Harry Treadaway, Тім Робінс (Tim Robbins), Біл Мюррей (Bill Murray), Б.Дж. Хогг / B.J. Hogg, Тобі Джонс / Toby Jones, Люсінда Драйзек / Lucinda Dryzek, Сірша Ронан / Saoirse Ronan, Мері Кей Плейс / Mary Kay Place, Мартін Ландау / Martin Landau та інші

Сюжет:
Вже декілька поколінь людей живуть в підземному місті освітлюваному лише ліхтарями, але творці притулку розраховували, що жителі зможуть вийти на поверхню через 200 років і залишили інструкції запечатані в тимчасовій капсулі. Капсула зберігалася і передавалася від одного мера міста, до наступного. Проте за збігом обставин цей ланцюжок урвався і скринька з інструкціями була загублена.

Давно минули 200 років вимушеного ув'язнення, запаси продовольства закінчуються. Серце підземного міста - енергетичний генератор, вичерпав термін своєї дії і працює буквально на чесному слові, але мер не бачить в цьому великої проблеми... для себе і не збирається шукати дороги порятунку для останніх жителів. Забуті інструкції випадково знаходить Ліна і тепер вони удвох зі своїм другом Доном намагаються розшифрувати послання, здолати людську недовіру, страх, уникнути пасток, переслідування поліції і допомогти жителям згасаючого міста знайти дорогу в інший світ.


Рейтинг MPAA: PG - рекомендується присутність батьків
Вікова категорія: 10+

Тривалість: 01:34:43
Якість: 720p
Відео:
кодек:
розмір кадру: 1280 х 532
бітрейт: 5071 кбіт/с

Аудіо # 1:
мова: українська
переклад: двоголосий закадровий
кодек: 2.0
бітрейт: 192 кбіт/с

Аудіо # 2:
мова: українська
переклад: двоголосий закадровий
кодек: 5.1
бітрейт: 448 кбіт/с

Аудіо # 3:
мова: англійська
переклад: оригінал
кодек: 5.1
бітрейт: 1509 кбіт/с

Субтитри # 1:
мова: українська
тип: програмні (м'які)
формат: *.srt

Субтитри # 2:
мова: англійська
тип: програмні (м'які)
формат: *.srt
MediaInfo
Код:
General
Unique ID                   : 247989766116797331591530840409823524875 (0xBA91177626AE7BE5AD08908571B0380B)
Complete name               : City of Ember (2008) [2xUkr,Eng sub.Ukr,Eng] 720p [Hurtom & HDClub].mkv
Format                      : Matroska
Format version              : Version 4 / Version 2
File size                   : 4.78 GiB
Duration                    : 1h 34mn
Overall bit rate            : 7 222 Kbps
Movie name                  : Місто Ембер / City of Ember (2008) [2xUkr,Eng sub.Ukr,Eng] 720p [Hurtom & HDClub]
Encoded date                : UTC 2015-02-14 17:16:58
Writing application         : mkvmerge v7.6.0 ('Garden of Dreams') 64bit built on Feb  8 2015 13:04:34
Writing library             : libebml v1.3.1 + libmatroska v1.4.2
DURATION                    : 01:30:10.367000000
NUMBER_OF_FRAMES            : 796
NUMBER_OF_BYTES             : 42712
_STATISTICS_WRITING_APP     : mkvmerge v7.6.0 ('Garden of Dreams') 64bit built on Feb  8 2015 13:04:34
_STATISTICS_WRITING_DATE_UT : 2015-02-14 17:16:58
_STATISTICS_TAGS            : BPS DURATION NUMBER_OF_FRAMES NUMBER_OF_BYTES

Video
ID                          : 1
Format                      : AVC
Format/Info                 : Advanced Video Codec
Format profile              : [email protected]
Format settings, CABAC      : Yes
Format settings, ReFrames   : 6 frames
Format settings, GOP        : N=1
Codec ID                    : V_MPEG4/ISO/AVC
Duration                    : 1h 34mn
Bit rate                    : 5 071 Kbps
Width                       : 1 280 pixels
Height                      : 532 pixels
Display aspect ratio        : 2.40:1
Frame rate mode             : Constant
Frame rate                  : 24.000 fps
Color space                 : YUV
Chroma subsampling          : 4:2:0
Bit depth                   : 8 bits
Scan type                   : Progressive
Bits/(Pixel*Frame)          : 0.310
Stream size                 : 3.26 GiB (68%)
Title                       : Місто Ембер / City of Ember / Город Эмбер: Побег (2008) [HDClub-sergey_n]
Writing library             : core 67 r1159M 3da3f95
Encoding settings           : cabac=1 / ref=6 / deblock=1:-3:-3 / analyse=0x3:0x113 / me=umh / subme=9 / psy_rd=1.0:0.0 / mixed_ref=1 / me_range=32 / chroma_me=1 / trellis=2 / 8x8dct=1 / cqm=0 / deadzone=21,11 / chroma_qp_offset=-2 / threads=6 / nr=0 / decimate=1 / mbaff=0 / bframes=16 / b_pyramid=1 / b_adapt=2 / b_bias=0 / direct=3 / wpredb=1 / keyint=250 / keyint_min=25 / scenecut=40 / rc=2pass / bitrate=5071 / ratetol=1.0 / qcomp=0.60 / qpmin=10 / qpmax=51 / qpstep=4 / cplxblur=20.0 / qblur=0.5 / ip_ratio=1.40 / pb_ratio=1.30 / aq=1:0.60
Language                    : English
Default                     : Yes
Forced                      : No
DURATION                    : 01:34:42.950000000
NUMBER_OF_FRAMES            : 136391
NUMBER_OF_BYTES             : 3601783238
_STATISTICS_WRITING_APP     : mkvmerge v7.6.0 ('Garden of Dreams') 64bit built on Feb  8 2015 13:04:34
_STATISTICS_WRITING_DATE_UT : 2015-02-14 17:16:58
_STATISTICS_TAGS            : BPS DURATION NUMBER_OF_FRAMES NUMBER_OF_BYTES

Audio #1
ID                          : 2
Format                      : AC-3
Format/Info                 : Audio Coding 3
Mode extension              : CM (complete main)
Format settings, Endianness : Big
Codec ID                    : A_AC3
Duration                    : 1h 34mn
Bit rate mode               : Constant
Bit rate                    : 192 Kbps
Channel(s)                  : 2 channels
Channel positions           : Front: L R
Sampling rate               : 48.0 KHz
Bit depth                   : 16 bits
Compression mode            : Lossy
Stream size                 : 130 MiB (3%)
Title                       : DVO [Novyj] 2.0 192 kbps [Hurtom-karvai0,xSlim]
Language                    : Ukrainian
Default                     : Yes
Forced                      : No

Audio #2
ID                          : 3
Format                      : AC-3
Format/Info                 : Audio Coding 3
Mode extension              : CM (complete main)
Format settings, Endianness : Big
Codec ID                    : A_AC3
Duration                    : 1h 34mn
Bit rate mode               : Constant
Bit rate                    : 448 Kbps
Channel(s)                  : 6 channels
Channel positions           : Front: L C R, Side: L R, LFE
Sampling rate               : 48.0 KHz
Bit depth                   : 16 bits
Compression mode            : Lossy
Stream size                 : 304 MiB (6%)
Title                       : DVO [TET] 5.1 448 kbps [Hurtom-rooster,xSlim]
Language                    : Ukrainian
Default                     : No
Forced                      : No

Audio #3
ID                          : 4
Format                      :
Format/Info                 : Digital Theater Systems
Mode                        : 16
Format settings, Endianness : Big
Codec ID                    : A_DTS
Duration                    : 1h 34mn
Bit rate mode               : Constant
Bit rate                    : 1 509 Kbps
Channel(s)                  : 6 channels
Channel positions           : Front: L C R, Side: L R, LFE
Sampling rate               : 48.0 KHz
Bit depth                   : 24 bits
Compression mode            : Lossy
Stream size                 : 1 022 MiB (21%)
Title                       : Original 5.1 1509 kbps
Language                    : English
Default                     : No
Forced                      : No

Text #1
ID                          : 5
Format                      : UTF-8
Codec ID                    : S_TEXT/UTF8
Codec ID/Info               : UTF-8 Plain Text
Title                       : Ukr full [DVD R5, OCR Hurtom-braveboy]
Language                    : Ukrainian
Default                     : No
Forced                      : No

Text #2
ID                          : 6
Format                      : UTF-8
Codec ID                    : S_TEXT/UTF8
Codec ID/Info               : UTF-8 Plain Text
Title                       : Eng full
Language                    : English
Default                     : No
Forced                      : No




Джерела та подяки: &
ріп відео, оригінальні звук та субтитри - sergey_n (HDClub); українські доріжки - karvai0, rooster - зведення, xSlim - запис з ТБ; українські субтитри - braveboy (розпізнавання), igor911 (виправлення помилок OCR), українізовані постери - dr_stas, Gelios; фільмографії акторів та інформація про озвучення - Віктор (всі - Гуртом).


ЗАЛИШАЙТЕСЬ ЯКОМОГА ДОВШЕ НА РОЗДАЧІ!

СКАЧАВ САМ - ДАЙ СКАЧАТИ ІНШИМ


 Трекер:    Зареєстрований   

Завантажити / скачати фільм українською



відео для новачків



 Зареєстрований:   2015-02-14 19:56
 Розмір:   4.78 GB 
 Оцінка фільму:   6.2/10 (Голосів: 25)
   
Інші релізи
   Місто Ембер / City of Ember (2008) 2xUkr/Eng | Sub Ukr/Eng xslim  7 / 0   1.45 GB   2011-07-17 00:55 
   Місто Ембер / City of Ember (2008) Ukr/Eng | Sub Ukr antik_2008  4 / 0   1.75 GB   2010-09-28 22:04 
EvGaS 
Відео Гуртом - підтримка та поширення
Відео Гуртом - підтримка та поширення


З нами з: 27.02.12
Востаннє: 06.12.16
Повідомлень: 2117

2015-02-16 12:23  
Не суперпопулярна, але гарна постапокаліптика.

Рекомендовано до перегляду хоч раз. (для розвитку навіть не любителям)

При першому перегляді фільм склав сильне враження своєю концерцією. (ситуація, навколишній світ)
Гра героїв, сюжетна лінія, передові на той час спецефекти - не вразили.

Ще якось вразили коментарі до того, як робили фільм й розробляли навколишній невеликий світ.

пан Струмок 
Свій


З нами з: 19.02.13
Востаннє: 30.11.16
Повідомлень: 123

2015-02-17 19:37  
Не кіно, ні. Щонайбільше, ледь тягне на кінце.
SebiVise 
Частий відвідувач


З нами з: 16.08.10
Востаннє: 04.12.16
Повідомлень: 48

2015-02-18 18:43  
пан Струмок
Дуже змістовний коментар. Втім, в чому ,власне, проявляється "неповноцінність" фільму так і невідомо. Так, він не із серії геніальних чи таких що вимагають глибоких роздумів, це швидше казка (впринципі як і більшість фантастики), але все це випливає з опису. Як на мене тут є хороший задум, кілька хороших акторів, непоганий сюжет і трохи наївності, але зпоміж всього непотребу, який трапляється і кожного року поповнює звалище собі подібного, безумовно, вирізняється з кращої сторони. Відтак, можу порадити до перегляду, особливо любителям подібної тематики.

пан Струмок 
Свій


З нами з: 19.02.13
Востаннє: 30.11.16
Повідомлень: 123

2015-02-18 19:47  
SebiVise
Я й не казав, що продукт неповноцінний. Напроти повноварте другорядне видиво. Чому? Бо воно не геніальне; не спонукає до глибоких роздумів; воно й не фантастика(бо й не пахло), воно й не казка(бо не вкметив бодай якоїсь науки чи моралі). Так,далебі,є задум, є актори, є сюжет та,куди ж без неї, наївність. Однак то є складові будь-якого,пробачте, порно. Та якщо серйозно. Я розумію на яку категорію глядачів спрямоване кіно. І це нібито не вимагає від продукту нічого особливого. Чи й не велика справа, дитяче кіно. Однак я так не вважаю. Як на мене, дане кіно виховує дурний смак.

SebiVise 
Частий відвідувач


З нами з: 16.08.10
Востаннє: 04.12.16
Повідомлень: 48

2015-02-18 22:07  
пан Струмок
Якось занадто різко і...порівняння з по*но...образливо, хоть і не в мою сторону. Складається враження, що ви його навіть не дивилися (напевно, просто перемотали, як і по*но (але по*но, як правило, не додивляються до кінця (з ряду фізіологічних обставин)))....і тут я хотів порекомендувати 50 відтінків сірого(сам наврядчи буду дивитися). Ви напевно дивитеся рейтингове кіно і шукаєте там глибоку мораль (інколи просто хочеться аби вона була). Ображає, як людина в котрої такий витончений смак і серйозний підхід може шось говорити про дитяче кіно.

пан Струмок 
Свій


З нами з: 19.02.13
Востаннє: 30.11.16
Повідомлень: 123

2015-02-18 22:23  
SebiVise
Дядьку,не лізь куди голова не влізе. Маєш що сказати особисто, пиши в приват.

hetzendorf 
Свій


З нами з: 23.07.15
Востаннє: 06.12.16
Повідомлень: 148

2016-04-09 00:18  
У фільмі яскраво змальовано модель суспільства, ураженого совком головного мозку у термінальній стадії. Спосіб життя такого суспільства — ультраконсервативна пасивність, а найвища цінність — стабільність! (sic!) Це зумовлює придушення будь-якої ініціятиви, завдяки чому соціум вимушений абсолютно екстенсивно користуватися створеною невідомо ким і коли інфраструктурою, яку не здатен і не бажає модернізувати. Абсолютно нерентабельне виробництво ледве жевріє й зовсім не задовольняє суспільного попиту (дефіцит цвіте й пахне!) Не дивно, що у таких умовах головним джерелом доходів стають розкрадання і корупція. Таке суспільство не має майбутнього і приречене на вимирання, від чого можна врятуватися або кардинальними змінами (суспільству в цілому), або втечею (окремим членам).

Крім того Сірша Ронан, яку я просто обожнюю, вже в цьому фільмі показує більш ніж пристойний рівень, дарма що мала Vampire-like teeth (Взагалі найбільше від неї тащуся у цьому фільмі та Милих кістках Tongue up (2) )

Ваш часовий пояс: GMT + 2 Години

Нова тема   Відповісти