Завантажити та скачати торренти українською


Зламані квіти / Broken Flowers (2005) 720p Ukr/Eng | Sub Eng

Нові коментарі

Нова тема   Відповісти
Автор Повідомлення
Anonymous 







2015-02-14 17:34  
Зламані квіти / Broken Flowers (2005) 720p Ukr/Eng | Sub Eng



Жанр: драма, комедія, детектив
Країна: США, Франція

Ґран-прі Каннського кінофестивалю 2005

Кінокомпанія: Focus Features, Five Roses, Bac Films
Режисер: Джим Джармуш / Jim Jarmusch
Актори: Біл Мюррей / Bill Murray, Джеффрі Райт / Jeffrey Wright, Шерон Стоун / Sharon Stone, Френсіс Конрой / Frances Conroy, Джесіка Ландж / Jessica Lange, Тільда Суінтон / Tilda Swinton, Джулі Делпі / Julie Delpy, Гезер Сіммс / Heather Simms, Бреа Фрезієр / Brea Frazier, Джеррі Фолл / Jarry Fall та інші

Сюжет:
Ранок для старого «Дон Жуана» Дона Джонстона починається з того, що від нього йде чергова подружка Шеррі, яка втратила віру в те, що з цією людиною можна створити сім'ю. Залишившись на самоті, переглядаючи пошту, Дон виявляє рожевий конверт.
У листі невідома повідомляє, що двадцять років тому, розлучившись з Доном, виявила, що вагітна. Не звертаючись за допомогою до Дона, виростила сина, якому вже 19 років. І хлопчик, якому мама не повідомила, хто його батько, вирішив самостійно побачити тата й пішов з дому. Дама писала, що нічого не хоче від Дона, просто попереджає, що зустріч батька з сином цілком можлива.
Показавши листа другу Вінстону - любителю детективів - Дон отримав від того пораду: згадати всіх своїх подружок, які у нього були 20 років назад і відвідати їх, з'ясувавши, хто з них народив йому сина ...


Рейтинг MPAA: R - особам до 17 років обов'язкова присутність батьків або дорослого опікуна
Вікова категорія: 16+

Тривалість: 01:41:22
Якість: 720p [CRiSC]
Відео:
кодек:
розмір кадру: 1280x720
бітрейт: 6353 кбіт/с [crf=18]

Аудіо # 1:
мова: українська
переклад: багатоголосий закадровий
ролі озвучили: Володимир Терещук, Дмитро Терещук та два жіночих голоси
кодек: 2.0
бітрейт: 192 кбіт/с

Аудіо # 2:
мова: англійська
переклад: оригінал
кодек: 5.1
бітрейт: 1509 кбіт/с

Субтитри:
мова: англійська
тип: програмні (м'які)
формат: *.srt

Збережено оригінальні розділи, як на Blu-ray.
MediaInfo
Код:
General
Unique ID                   : 223347900337606050258598177505042897231 (0xA8073DAD6EBD8C9D8B3584B138BE194F)
Complete name               : Broken Flowers (2005) [Ukr,Eng sub.Eng] 720p [Hurtom & HDClub].mkv
Format                      : Matroska
Format version              : Version 4 / Version 2
File size                   : 5.82 GiB
Duration                    : 1h 41mn
Overall bit rate            : 8 217 Kbps
Movie name                  : Зламані квіти / Broken Flowers (2005) [Ukr,Eng sub.Eng] 720p [Hurtom & HDClub]
Encoded date                : UTC 2015-02-13 09:47:58
Writing application         : mkvmerge v7.6.0 ('Garden of Dreams') 64bit built on Feb  8 2015 13:04:34
Writing library             : libebml v1.3.1 + libmatroska v1.4.2
DURATION                    : 01:41:22.944000000
NUMBER_OF_FRAMES            : 190092
NUMBER_OF_BYTES             : 145990656
_STATISTICS_WRITING_APP     : mkvmerge v7.6.0 ('Garden of Dreams') 64bit built on Feb  8 2015 13:04:34
_STATISTICS_WRITING_DATE_UT : 2015-02-13 09:47:58
_STATISTICS_TAGS            : BPS DURATION NUMBER_OF_FRAMES NUMBER_OF_BYTES

Video
ID                          : 1
Format                      : AVC
Format/Info                 : Advanced Video Codec
Format profile              : [email protected]
Format settings, CABAC      : Yes
Format settings, ReFrames   : 9 frames
Codec ID                    : V_MPEG4/ISO/AVC
Duration                    : 1h 41mn
Bit rate                    : 6 353 Kbps
Width                       : 1 280 pixels
Height                      : 720 pixels
Display aspect ratio        : 16:9
Frame rate mode             : Constant
Frame rate                  : 25.000 fps
Color space                 : YUV
Chroma subsampling          : 4:2:0
Bit depth                   : 8 bits
Scan type                   : Progressive
Bits/(Pixel*Frame)          : 0.276
Stream size                 : 4.50 GiB (77%)
Title                       : Зламані квіти / Broken Flowers / Сломанные цветы (2005) 720p [CRiSC]
Writing library             : core 77 r1292 e381f6d
Encoding settings           : cabac=1 / ref=9 / deblock=1:-3:-3 / analyse=0x3:0x113 / me=umh / subme=9 / psy=1 / psy_rd=1.4:0.0 / mixed_ref=1 / me_range=24 / chroma_me=1 / trellis=2 / 8x8dct=1 / cqm=0 / deadzone=21,11 / chroma_qp_offset=-2 / threads=3 / nr=0 / decimate=1 / mbaff=0 / constrained_intra=0 / bframes=6 / b_pyramid=1 / b_adapt=2 / b_bias=0 / direct=1 / wpredb=1 / keyint=250 / keyint_min=25 / scenecut=40 / rc=crf / mbtree=0 / crf=18.0 / qcomp=0.70 / qpmin=10 / qpmax=51 / qpstep=4 / ip_ratio=1.40 / pb_ratio=1.30 / aq=1:0.90
Language                    : English
Default                     : Yes
Forced                      : No
DURATION                    : 01:41:22.960000000
NUMBER_OF_FRAMES            : 152074
NUMBER_OF_BYTES             : 4952679055
_STATISTICS_WRITING_APP     : mkvmerge v7.6.0 ('Garden of Dreams') 64bit built on Feb  8 2015 13:04:34
_STATISTICS_WRITING_DATE_UT : 2015-02-13 09:47:58
_STATISTICS_TAGS            : BPS DURATION NUMBER_OF_FRAMES NUMBER_OF_BYTES

Audio #1
ID                          : 2
Format                      : AC-3
Format/Info                 : Audio Coding 3
Mode extension              : CM (complete main)
Format settings, Endianness : Big
Codec ID                    : A_AC3
Duration                    : 1h 41mn
Bit rate mode               : Constant
Bit rate                    : 192 Kbps
Channel(s)                  : 2 channels
Channel positions           : Front: L R
Sampling rate               : 48.0 KHz
Bit depth                   : 16 bits
Compression mode            : Lossy
Stream size                 : 139 MiB (2%)
Title                       : MVO [TVI] 2.0 192 kbps [Hurtom-karvai0]
Language                    : Ukrainian
Default                     : Yes
Forced                      : No

Audio #2
ID                          : 3
Format                      :
Format/Info                 : Digital Theater Systems
Mode                        : 16
Format settings, Endianness : Big
Codec ID                    : A_DTS
Duration                    : 1h 41mn
Bit rate mode               : Constant
Bit rate                    : 1 509 Kbps
Channel(s)                  : 6 channels
Channel positions           : Front: L C R, Side: L R, LFE
Sampling rate               : 48.0 KHz
Bit depth                   : 24 bits
Compression mode            : Lossy
Stream size                 : 1.07 GiB (18%)
Title                       : Original 5.1 1536 kbps
Language                    : English
Default                     : No
Forced                      : No

Text
ID                          : 4
Format                      : UTF-8
Codec ID                    : S_TEXT/UTF8
Codec ID/Info               : UTF-8 Plain Text
Language                    : English
Default                     : No
Forced                      : No

Menu
00:00:00.000                : :1. The Pink Letter
00:03:28.000                : :2. The Private Life of Don
00:08:18.000                : :3. Dear Don
00:14:53.040                : :4. It's Kinda Lonely in Here
00:19:18.440                : :5. What List?
00:23:09.080                : :6. The Plan
00:27:52.400                : :7. In Transit
00:33:46.320                : :8. Surprise Appearance
00:38:25.240                : :9. Laura & Lolita
00:41:48.000                : :10. Just Looking for a Typewriter
00:44:30.640                : :11. Dora
00:50:29.560                : :12. A Swig of Oil
00:55:09.760                : :13. Stalking in a Taurus
01:02:36.360                : :14. Hidden Agenda
01:08:47.840                : :15. I'm Lost
01:11:53.600                : :16. Penny's Farm
01:19:10.760                : :17. Michelle Pepe
01:24:13.560                : :18. The Last Card?
01:30:06.240                : :19. All There Is Is This
01:36:42.600                : :20. End Titles




Джерела та подяки: &
ріп відео, оригінальні звук та субтитри - CRiSC (HDbits), Dreamcatcher (HDClub); українська доріжка - karvai0 - зведення, MAKAPOHHIK - запис з ТБ; фільмографії акторів та інформація про озвучення - Віктор (всі - Гуртом).


ЗАЛИШАЙТЕСЬ ЯКОМОГА ДОВШЕ НА РОЗДАЧІ!

СКАЧАВ САМ - ДАЙ СКАЧАТИ ІНШИМ


 Трекер:    Зареєстрований   

Завантажити / скачати фільм українською



відео для новачків



 Зареєстрований:   2015-02-14 17:34
 Розмір:   5.82 GB 
 Оцінка фільму:   5/10 (Голосів: 19)
   
Інші релізи
   Зламані квіти / Broken Flowers (2005) Ukr/Eng | Sub Eng karvai0  2 / 1   1.72 GB   2013-11-11 15:49 
Ваш часовий пояс: GMT + 2 Години

Нова тема   Відповісти