Завантажити та скачати торренти українською


Добірка українських мультфільмів для малюків / З любов'ю до дітей (13 відео) (2011-2015)

Нові коментарі

Нова тема   Відповісти
Автор Повідомлення
azoth 
Новенький


З нами з: 31.01.15
Востаннє: 20.11.16
Повідомлень: 1

2015-02-08 15:25  
Добірка українських мультфільмів для малюків / З любов'ю до дітей (13 відео) (2011-2015)



Жанр: анімація
Країна: Україна

Кінокомпанія: "З любов'ю до дітей"
Сюжет: Мультфільми та розвиваючі уроки для дітей

Тривалість: від 1 до 10 хвилин (цілком серій: 13)
Перелік мультфільмів
1. Абетка для дітей - Вивчаємо українську абетку
2. Вивчаємо кольори веселки - Розвиваючі уроки для дітей
3. Вчимо назви пальчиків - Розвиваючі уроки для дітей
4. Вчимося рахувати до 10 - Уроки арифметики для дітей
5. Вчимося рахувати до десяти - Уроки арифметики для дітей
6. Котик Мурчик - Мультфільм
7. Мультик про казкове Різдво
8. Мультфільм Кольоровий поїзд - Вчимо кольори.
9. Мультфільм про місяці і пори року.
10. Пісня про гриби.
11. Святий Миколай мультфільм-пісня.
12. Смачні кольори - Розвиваючий мультфільм
13. Цікава абетка - розумна дитина. Вивчаємо українську абетку
Якість:
Відео:
кодек:
розмір кадру: 1280 х 720
бітрейт: ~ 1200 - 2000 кб/с

Аудіо:
мова: українська
переклад: оригінал
кодек: 2.0
бітрейт: 192 кб/с
Скріншоти






MediaInfo
General
Complete name : C:\Users\Downloads\Абетка для дітей _ Вивчаємо українську абетку.mp4
Format : MPEG-4
Format profile : Base Media / Version 2
Codec ID : mp42
File size : 94.2 MiB
Duration : 8mn 57s
Overall bit rate mode : Variable
Overall bit rate : 1 470 Kbps
Encoded date : UTC 2014-03-07 10:17:42
Tagged date : UTC 2014-03-07 10:17:42
gsst : 0
gstd : 537936
gssd : BD075F042HH1417979108668223
gshh : r6---sn-ab5e6m7s.googlevideo.com

Video
ID : 1
Format : AVC
Format/Info : Advanced Video Codec
Format profile : [email protected]
Format settings, CABAC : Yes
Format settings, ReFrames : 1 frame
Codec ID : avc1
Codec ID/Info : Advanced Video Coding
Duration : 8mn 57s
Bit rate : 1 275 Kbps
Maximum bit rate : 3 660 Kbps
Width : 1 280 pixels
Height : 720 pixels
Display aspect ratio : 16:9
Frame rate mode : Constant
Frame rate : 25.000 fps
Color space : YUV
Chroma subsampling : 4:2:0
Bit depth : 8 bits
Scan type : Progressive
Bits/(Pixel*Frame) : 0.055
Stream size : 81.8 MiB (87%)
Tagged date : UTC 2014-03-07 10:17:46

Audio
ID : 2
Format :
Format/Info : Advanced Audio Codec
Format profile : LC
Codec ID : 40
Duration : 8mn 57s
Bit rate mode : Variable
Bit rate : 192 Kbps
Maximum bit rate : 201 Kbps
Channel(s) : 2 channels
Channel positions : Front: L R
Sampling rate : 44.1 KHz
Compression mode : Lossy
Stream size : 12.3 MiB (13%)
Title : IsoMedia File Produced by Google, 5-11-2011
Encoded date : UTC 2014-03-07 10:17:45
Tagged date : UTC 2014-03-07 10:17:46
Джерело: Youtube канал
Особиста оцінка: 8 - мені сподобалося


Золотий реліз (завантажене не впливає на рейтинг)
 Трекер:    Зареєстрований   

Завантажити / скачати український мультфільм



відео для новачків



 Зареєстрований:   2015-02-08 15:25
 Розмір:   691 MB 
 Оцінка мультфільму:   9.7/10 (Голосів: 50)
 Українські мультфільми для малечі
   
Konfucius 
Управління
Управління


З нами з: 30.09.07
Востаннє: 04.12.16
Повідомлень: 4741

2015-02-11 17:56  
ВасяХ 
Новенький


З нами з: 04.07.14
Востаннє: 02.12.16
Повідомлень: 3

2015-03-13 07:48  
Назви пальчиків, наприклад, син 4 роки сам вмикає на комп'ютері і вголос повторює.Дякую за збірку. Тільки не зрозумів напис зліва, що реліз перевіряється. При тому,що зареєстрований більше місяця назад.
katolik 
Поважний учасник


З нами з: 01.12.08
Востаннє: 27.11.16
Повідомлень: 192

2016-07-30 17:23  
Щиро дякую за чудовий реліз для найменших українців.
Ваш часовий пояс: GMT + 2 Години

Нова тема   Відповісти