Завантажити та скачати торренти українською


Янголи та Демони [Розширена версія] / Angels & Demons [Extended Cut] (2009) 1080p Ukr/Eng | Sub Ukr/Eng

Нові коментарі

Нова тема   Відповісти
Автор Повідомлення
Beffis 
Модератор DVD


З нами з: 17.09.09
Востаннє: 11.12.16
Повідомлень: 339

2015-02-05 11:01  
Янголи та Демони [Розширена версія] / Angels & Demons [Extended Cut] (2009) 1080p Ukr/Eng | Sub Ukr/Eng

Янголи та Демони [Розширена версія] / Angels & Demons [Extended Cut] (2009) 1080p Ukr/Eng | Sub Ukr/Eng


Жанр: Триллер, Драма, Кримінал, Детектив
Країна: США



Кінокомпанія: Columbia Pictures
Режисер: Рон Хоуорд
Актори: Том Хенкс, Юен МакГрегор, Аіліт Зорор, Стеллан Скарсгард, Пьерфранческо Фавіно, Ніколай Лі Каас, Армін Мюллер-Шталь, Туре Ліндхардт, Девід Паскесі, Козімо Фуско

Сюжет:
Іллюмінати. Древній таємничий орден, що прославився в середні віки лютою боротьбою з офіційною церквою. Легенда далекого минулого? Можливо... Але - чому тоді на грудях убитого при загадкових обставинах ученого вирізаний саме символ іллюмінатов? Запрошений з Гарварду фахівець з символіки і його напарник, дочка убитого, починають власне розслідування - і незабаром приходять до неймовірних результатів...



Тривалість: 02:26:15
Якість:
Відео:
кодек:
розмір кадру: 1920x800
бітрейт: 10 200 кб/с

Аудіо # 1:
мова: українська
переклад: професійний дубльований
кодек: 5.1
бітрейт: 640 кб/с

Аудіо # 2:
мова: англійська
переклад: оригінал
кодек: 5.1
бітрейт: 1509 кб/с

Джерело озвучення:


Субтитри:(до моментів без перекладу)
мова: українська
тип: програмні (м'які)
формат: *.pgs

Субтитри:
мова: англійська
тип: пререндерні
формат: UTF-8
MediaInfo
General
Unique ID : 228612104521651779941841563652175320308 (0xABFD16FB7A98B50AAEB142B81E3E54F4)
Complete name : D:\Angels & Demons 2009 [Extended Cut] 1080p [HURTOM] by Beffis .mkv
Format : Matroska
Format version : Version 4 / Version 2
File size : 12.7 GiB
Duration : 2h 26mn
Overall bit rate : 12.4 Mbps
Encoded date : UTC 2015-02-05 08:09:05
Writing application : mkvmerge v7.5.0 ('Glass Culture') 64bit built on Jan 4 2015 16:48:44
Writing library : libebml v1.3.1 + libmatroska v1.4.2
DURATION : 02:12:30.859000000
NUMBER_OF_FRAMES : 321
NUMBER_OF_BYTES : 805412
_STATISTICS_WRITING_APP : mkvmerge v7.5.0 ('Glass Culture') 64bit built on Jan 4 2015 16:48:44
_STATISTICS_WRITING_DATE_UTC : 2015-02-05 08:09:05
_STATISTICS_TAGS : BPS DURATION NUMBER_OF_FRAMES NUMBER_OF_BYTES

Video
ID : 1
Format : AVC
Format/Info : Advanced Video Codec
Format profile : [email protected]
Format settings, CABAC : Yes
Format settings, ReFrames : 5 frames
Codec ID : V_MPEG4/ISO/AVC
Duration : 2h 26mn
Bit rate : 10.2 Mbps
Width : 1 920 pixels
Height : 800 pixels
Display aspect ratio : 2.40:1
Frame rate mode : Constant
Frame rate : 23.976 fps
Color space : YUV
Chroma subsampling : 4:2:0
Bit depth : 8 bits
Scan type : Progressive
Bits/(Pixel*Frame) : 0.278
Stream size : 10.2 GiB (81%)
Writing library : core 68 r1183M f21daff
Encoding settings : cabac=1 / ref=5 / deblock=1:-3:-3 / analyse=0x3:0x133 / me=umh / subme=9 / psy_rd=1.1:0.0 / mixed_ref=1 / me_range=48 / chroma_me=1 / trellis=2 / 8x8dct=1 / cqm=0 / deadzone=21,11 / chroma_qp_offset=-2 / threads=12 / nr=0 / decimate=0 / mbaff=0 / bframes=8 / b_pyramid=1 / b_adapt=2 / b_bias=0 / direct=3 / wpredb=1 / keyint=250 / keyint_min=25 / scenecut=40 / rc=2pass / bitrate=10233 / ratetol=1.0 / qcomp=0.60 / qpmin=10 / qpmax=51 / qpstep=4 / cplxblur=20.0 / qblur=0.5 / vbv_maxrate=50000 / vbv_bufsize=50000 / ip_ratio=1.40 / pb_ratio=1.30 / aq=1:1.00
Language : English
Default : Yes
Forced : No
DURATION : 02:26:15.600000000
NUMBER_OF_FRAMES : 210404
NUMBER_OF_BYTES : 11223099267
_STATISTICS_WRITING_APP : mkvmerge v7.5.0 ('Glass Culture') 64bit built on Jan 4 2015 16:48:44
_STATISTICS_WRITING_DATE_UTC : 2015-02-05 08:09:05
_STATISTICS_TAGS : BPS DURATION NUMBER_OF_FRAMES NUMBER_OF_BYTES

Audio #1
ID : 2
Format : AC-3
Format/Info : Audio Coding 3
Mode extension : CM (complete main)
Format settings, Endianness : Big
Codec ID : A_AC3
Duration : 2h 26mn
Bit rate mode : Constant
Bit rate : 640 Kbps
Channel(s) : 6 channels
Channel positions : Front: L C R, Side: L R, LFE
Sampling rate : 48.0 KHz
Bit depth : 16 bits
Compression mode : Lossy
Stream size : 670 MiB (5%)
Language : Ukrainian
Default : Yes
Forced : No

Audio #2
ID : 3
Format :
Format/Info : Digital Theater Systems
Mode : 16
Format settings, Endianness : Big
Codec ID : A_DTS
Duration : 2h 26mn
Bit rate mode : Constant
Bit rate : 1 509 Kbps
Channel(s) : 6 channels
Channel positions : Front: L C R, Side: L R, LFE
Sampling rate : 48.0 KHz
Bit depth : 24 bits
Compression mode : Lossy
Stream size : 1.54 GiB (12%)
Title : 5.1 1536 kbps
Language : English
Default : No
Forced : No

Text #1
ID : 4
Format : PGS
Muxing mode : zlib
Codec ID : S_HDMV/PGS
Codec ID/Info : The same subtitle format used on BDs/HD-DVDs
Language : Ukrainian
Default : Yes
Forced : No

Text #2
ID : 5
Format : UTF-8
Codec ID : S_TEXT/UTF8
Codec ID/Info : UTF-8 Plain Text
Language : English
Default : No
Forced : No
Скріншоти
Подяка за звукову доріжку постер і субтитри:Zeus62


Джерело:
Особиста оцінка: 10 - без зайвих вагань рекомендую всім!


 Трекер:    Зареєстрований   

Завантажити / скачати фільм українською



відео для новачків



 Зареєстрований:   2015-02-05 11:01
 Розмір:   12.65 GB 
 Оцінка фільму:   9.3/10 (Голосів: 12)
   
simalight 
Частий відвідувач


З нами з: 16.11.13
Востаннє: 05.12.16
Повідомлень: 46

2015-02-05 17:17  
шикарнючий фільм! і бездоганна гра Тома Хенкса!
раджу спочатку прочитати книгу, звісна річ..) із всіх книжок, написаних Деном Брауном, про Ленгдона - "Ангели і Демони" та "Інферно" - мені сподобалися найбільше! дуже цікаво)

моя оцінка - 10/10

lpershyi 
Попереджень: 2
Попереджень: 2 


З нами з: 04.01.11
Востаннє: 30.11.16
Повідомлень: 2622

2015-02-05 17:46  
simalight написано:
бездоганна гра Тома
Генкс тут ні до чого Wink (1)
Supremus 
Новенький


З нами з: 15.05.11
Востаннє: 28.11.16
Повідомлень: 12

2016-02-07 22:11  
фільм-розчарування, як на мене. очікував більшого.
читав книжку, дуже сподобалася. в кіні страшенно все перекрутили, а деяких героїв взагалі прибрали (кодлера, журналістів). батька Вітторії взагалі поміняли на колегу, 5-те тавро замінили з "діаманта ілюмінатів" на два перехрещених ключики, 4й кардинал взагалі вижив...

Ваш часовий пояс: GMT + 2 Години

Нова тема   Відповісти