Завантажити та скачати торренти українською


Заборонена місія / Хапайте цих дітей / Catch That Kid (2004) 720p 2xUkr/Eng | Sub Eng

Нові коментарі

Нова тема   Відповісти
Автор Повідомлення
Anonymous 







2015-02-03 16:35  
Заборонена місія / Хапайте цих дітей / Catch That Kid (2004) 720p 2xUkr/Eng | Sub Eng



Жанр: комедія, кримінальний, сімейний
Країна: США, Німеччина



Кінокомпанія: Fox 2000 Pictures, Mad Chance, Nimbus Film Productions, Mediastream Dritte Film GmbH & Co. Beteiligungs KG, Catch That Girl, Eclipse Catering, Splendid Productions
Режисер: Джордж С. Клінтон / George S. Clinton
Актори: Крістен Стюарт / Kristen Stewart, Корбін Блю / Corbin Bleu, Макс Тіріот / Max Thieriot, Дженніфер Білз / Jennifer Beals, Сем Робардс / Sam Robards, Джон Керролл Лінч / John Carroll Lynch, Джеймс Леґрос / James LeGros, Майкл Де Барр / Michael Des Barres, Старк Сендс / Stark Sands, Ленні Лофтін / Lennie Loftin та інші

Сюжет:
У той час, як хтось плаче в подушку, інші – зважуються обчистити банк. Батько головної героїні Медді захоплюється альпінізмом, але одного разу йому не пощастило, і після падіння з висоти він став інвалідом. Єдине, що може підняти його з ліжка – дорога операція, на яку у родини немає коштів. Але Медді не втрачає надії, і всі свої навички підкорення гірських вершин використовує для не менш небезпечної операції – пограбування банку, оснащеного суперсучасною системою охорони. Їй належить не тільки розробити план, як потрапити в банк, а й примудритися не підставити власну матір, яка, за іронією долі, працює в службі безпеки цього ж банку. Допомогти подрузі зголошуються юний комп’ютерний геній Гас і талановитий винахідник Остін.


Рейтинг MPAA: PG - рекомендується присутність батьків
Вікова категорія: 6+

Тривалість: 01:31:45
Якість: 720p [iTunes]
Відео:
кодек:
розмір кадру: 1280x694
бітрейт: 4016 кбіт/с

Аудіо # 1:
мова: українська
переклад: двоголосий закадровий
кодек: 2.0
бітрейт: 192 кбіт/с

Аудіо # 2:
мова: українська
переклад: багатоголосий закадровий
кодек: 2.0
бітрейт: 192 кбіт/с
примітка: на проміжку 40:52 - 41:03 немає озвучення, тому вставлено переклад від "ТЕТ"

Аудіо # 3:
мова: англійська
переклад: оригінал
кодек: 5.1
бітрейт: 384 кбіт/с

Субтитри:
мова: англійська
тип: програмні (м'які)
формат: *.srt

Збережено оригінальні розділи.
MediaInfo
Код:
General
Unique ID                   : 188156949028490576360677358516169526650 (0x8D8DB5D225D7A3F2B8A2E48A647ECD7A)
Complete name               : Catch That Kid (2004) [2xUkr,Eng sub.Eng] 720p [Hurtom].mkv
Format                      : Matroska
Format version              : Version 4 / Version 2
File size                   : 3.13 GiB
Duration                    : 1h 31mn
Overall bit rate            : 4 881 Kbps
Movie name                  : Заборонена місія / Хапайте цих дітей / Catch That Kid (2004) [2xUkr,Eng sub.Eng] 720p [Hurtom]
Encoded date                : UTC 2015-02-02 06:43:04
Writing application         : mkvmerge v7.5.0 ('Glass Culture') 64bit built on Jan  4 2015 16:48:44
Writing library             : libebml v1.3.1 + libmatroska v1.4.2
DURATION                    : 01:31:44.608000000
NUMBER_OF_FRAMES            : 172019
NUMBER_OF_BYTES             : 132110592
_STATISTICS_WRITING_APP     : mkvmerge v7.5.0 ('Glass Culture') 64bit built on Jan  4 2015 16:48:44
_STATISTICS_WRITING_DATE_UT : 2015-02-02 06:43:04
_STATISTICS_TAGS            : BPS DURATION NUMBER_OF_FRAMES NUMBER_OF_BYTES

Video
ID                          : 1
Format                      : AVC
Format/Info                 : Advanced Video Codec
Format profile              : [email protected]
Format settings, CABAC      : No
Format settings, ReFrames   : 2 frames
Codec ID                    : V_MPEG4/ISO/AVC
Duration                    : 1h 31mn
Bit rate                    : 4 016 Kbps
Width                       : 1 280 pixels
Height                      : 694 pixels
Display aspect ratio        : 1.85:1
Frame rate mode             : Constant
Frame rate                  : 23.976 fps
Color space                 : YUV
Chroma subsampling          : 4:2:0
Bit depth                   : 8 bits
Scan type                   : Progressive
Bits/(Pixel*Frame)          : 0.189
Stream size                 : 2.57 GiB (82%)
Title                       : Заборонена місія / Хапайте цих дітей / Catch That Kid / Запретная миссия (2004) 720p [iTunes]
Language                    : English
Default                     : Yes
Forced                      : No
Color primaries             : BT.709
Transfer characteristics    : BT.709
Matrix coefficients         : BT.709
Color range                 : Limited

Audio #1
ID                          : 2
Format                      : AC-3
Format/Info                 : Audio Coding 3
Mode extension              : CM (complete main)
Format settings, Endianness : Big
Codec ID                    : A_AC3
Duration                    : 1h 31mn
Bit rate mode               : Constant
Bit rate                    : 192 Kbps
Channel(s)                  : 2 channels
Channel positions           : Front: L R
Sampling rate               : 48.0 KHz
Bit depth                   : 16 bits
Compression mode            : Lossy
Stream size                 : 126 MiB (4%)
Title                       : DVO [TET] 2.0 192 kbps [Hurtom-taraskill1]
Language                    : Ukrainian
Default                     : Yes
Forced                      : No

Audio #2
ID                          : 3
Format                      : AC-3
Format/Info                 : Audio Coding 3
Mode extension              : CM (complete main)
Format settings, Endianness : Big
Codec ID                    : A_AC3
Duration                    : 1h 31mn
Bit rate mode               : Constant
Bit rate                    : 192 Kbps
Channel(s)                  : 2 channels
Channel positions           : Front: L R
Sampling rate               : 48.0 KHz
Bit depth                   : 16 bits
Compression mode            : Lossy
Stream size                 : 126 MiB (4%)
Title                       : MVO [Novyj] 2.0 192 kbps [Hurtom-taraskill1]
Language                    : Ukrainian
Default                     : No
Forced                      : No

Audio #3
ID                          : 4
Format                      : AC-3
Format/Info                 : Audio Coding 3
Mode extension              : CM (complete main)
Format settings, Endianness : Big
Codec ID                    : A_AC3
Duration                    : 1h 31mn
Bit rate mode               : Constant
Bit rate                    : 384 Kbps
Channel(s)                  : 6 channels
Channel positions           : Front: L C R, Side: L R, LFE
Sampling rate               : 48.0 KHz
Bit depth                   : 16 bits
Compression mode            : Lossy
Stream size                 : 252 MiB (8%)
Title                       : Original 5.1 384 kbps
Language                    : English
Default                     : No
Forced                      : No

Text
ID                          : 5
Format                      : UTF-8
Codec ID                    : S_TEXT/UTF8
Codec ID/Info               : UTF-8 Plain Text
Language                    : English
Default                     : No
Forced                      : No

Menu
00:00:00.000                : en:Main Titles/Freefall
00:04:02.000                : en:At the Track
00:08:08.000                : en:Just Like Dad
00:10:47.000                : en:Calamity
00:15:56.000                : en:Making a Plan
00:20:42.000                : en:D-E-N-I-R-O
00:24:38.000                : en:Nice Doggie
00:27:13.000                : en:Preparations
00:29:55.000                : en:A Star is Born
00:33:32.000                : en:My Heart is Yours
00:36:15.000                : en:Party Time!
00:39:39.000                : en:Distraction
00:45:22.000                : en:Getting Inside
00:50:42.000                : en:Eye of the Lion
00:54:14.000                : en:Security Breach
00:56:48.000                : en:Free Climb
01:03:31.000                : en:Intruder Alert
01:08:26.000                : en:Broken Hearts
01:10:24.000                : en:Hot Pursuit
01:13:36.000                : en:Operation Jacks
01:17:09.000                : en:Only a Test
01:20:03.000                : en:Big Hearts
01:24:17.000                : en:Race Time
01:26:00.000                : en:Choose/End Titles





Джерела та подяки: &
відео, оригінальні звук та субтитри - JSPK (рутрекер); українські доріжки - taraskill1 - зведення, POMEO, ua2004 - запис з ТБ; українізований постер - bober-mober (всі - Гуртом).


ЗАЛИШАЙТЕСЬ ЯКОМОГА ДОВШЕ НА РОЗДАЧІ!

СКАЧАВ САМ - ДАЙ СКАЧАТИ ІНШИМ


Срібний реліз (на рейтинг впливає 50% завантаженого)
 Трекер:    Зареєстрований   

Завантажити / скачати фільм українською



відео для новачків



 Зареєстрований:   2015-02-03 16:35
 Розмір:   3.13 GB 
 Оцінка фільму:   2.5/10 (Голосів: 12)
   
Інші релізи
Ваш часовий пояс: GMT + 2 Години

Нова тема   Відповісти