Завантажити та скачати торренти українською


Євгенія Мірошниченко - Улюблені українські мелодії [Капелиста музика Юрія Яценка] (2003) [FLAC] | Ethnic

Нові коментарі

Нова тема   Відповісти
Останній раз роздавалося дао нет (2016-10-06)
Автор Повідомлення
kurgo 
Новенький


З нами з: 11.04.12
Востаннє: 25.11.16
Повідомлень: 15

2015-02-02 21:10  
Євгенія Мірошниченко - Улюблені українські мелодії [Капелиста музика Юрія Яценка] (2003) [FLAC] | Ethnic

Євгенія Мірошниченко - Улюблені українські мелодії [Капелиста музика Юрія Яценка] (2003) [FLAC] | Ethnic


Стиль: Folk
Країна, місто: Україна, Київ
Видавець: Taras Bulba Entertainment
Виконавці:
Ю.Яценко
Є.Мірошниченко
гурт "Капелиста Музика"
Пісні:
    01 - Українська шумка (Михайло Завадський запис 1986р)
    02 - Стоїть гора високая (укр. нар. пісня в обробці Миколи Різоля запис 1986р)
    03 - Баламуте (укр. нар. пісня в обробці Юрія Яценка запис 1986р)
    04 - Роман (укр. нар. танець в обробці Юрія Яценка запис 1988р)
    05 - Полька-коханочка (укр. нар. танець в обробці Юрія Яценка запис1988р)
    06 - Метелиця (укр. нар. танець в обробці Юрія Яценка запис1988р)
    07 - Чабарашка № 12 (Михайло Завадський запис 1986р)
    08 - Чабарашка № 15 (Михайло Завадський запис 1986р)
    09 - Чотири воли пасу я (укр. нар. пісня в обробці Анатолія Кос-Анатольського запис 1991р)
    10 - Зелененький барвиночку (укр. нар. пісня в обробці Петра Бойченка запис 1991р)
    11 - Ой, мала я у коморі просо (укр. нар. пісня в обробці Леопольда Ященка запис 1991р)
    12 - Летить галка через балку (укр. нар. пісня в обробці Миколи Різоля запис 1986р)
    13 - Ой, вербо, вербо (укр. нар. пісня в обробці Юрія Яценка запис 1986р)
    14 - Микола (укр. нар. танець в обробці Юрія Яценка запис 1988р)
    15 - Катерина (укр. нар. танець в обробці Юрія Яценка запис1988р)
    16 - Стоїть гора високая (укр. нар. пісня в обробці Федора Надененка запис 1991р)
    17 - У вишневому садочку (укр. нар. пісня в обробці Миколи Вілінського запис 1991р)
    18 - На вулиці скрипка грає (укр. нар. пісня в обробці Івана Доскалова запис 1991р)
    19 - Козак (Михайло Завадський запис 1986р)
log
Exact Audio Copy V1.0 beta 3 from 29. August 2011

Отчёт EAC об извлечении, выполненном 1. февраля 2015, 23:24

Юрий Яценко (кобза) / Евгения Мирошниченко, "Капелиста Музика" Юрія Яценка. Любимые украинские мелодии.

Дисковод: HL-DT-STDVDRAM GH22NS50 Adapter: 0 ID: 1

Режим чтения : Достоверность
Использование точного потока : Да
Отключение кэша аудио : Да
Использование указателей C2 : Нет

Коррекция смещения при чтении : 667
Способность читать области Lead-in и Lead-out : Нет
Заполнение пропущенных сэмплов тишиной : Да
Удаление блоков с тишиной в начале и конце : Нет
При вычислениях CRC использовались нулевые сэмплы : Да
Интерфейс : Встроенный Win32-интерфейс для Win NT/2000

Выходной формат : Пользовательский кодировщик
Выбранный битрейт : 128 kBit/s
Качество : Высокий
Добавление ID3-тега : Нет
Утилита сжатия : C:\Program Files (x86)\Exact Audio Copy\Flac\flac.exe
Дополнительные параметры : -V -8 -T "Date=%year%" -T "Genre=%genre%" %source%

TOC извлечённого CD

Трек | Старт | Длительность | Начальный сектор | Конечный сектор
---------------------------------------------------------------------
1 | 0:00.00 | 2:30.31 | 0 | 11280
2 | 2:30.31 | 4:00.69 | 11281 | 29349
3 | 6:31.25 | 2:04.71 | 29350 | 38720
4 | 8:36.21 | 3:03.15 | 38721 | 52460
5 | 11:39.36 | 1:51.63 | 52461 | 60848
6 | 13:31.24 | 2:54.37 | 60849 | 73935
7 | 16:25.61 | 2:59.70 | 73936 | 87430
8 | 19:25.56 | 1:48.58 | 87431 | 95588
9 | 21:14.39 | 4:00.28 | 95589 | 113616
10 | 25:14.67 | 1:57.28 | 113617 | 122419
11 | 27:12.20 | 2:05.28 | 122420 | 131822
12 | 29:17.48 | 3:06.51 | 131823 | 145823
13 | 32:24.24 | 2:18.00 | 145824 | 156173
14 | 34:42.24 | 2:59.32 | 156174 | 169630
15 | 37:41.56 | 2:02.08 | 169631 | 178788
16 | 39:43.64 | 3:55.13 | 178789 | 196426
17 | 43:39.02 | 3:11.15 | 196427 | 210766
18 | 46:50.17 | 1:30.48 | 210767 | 217564
19 | 48:20.65 | 3:03.69 | 217565 | 231358

Характеристики диапазона извлечения и сообщения об ошибках

Выбранный диапазон

Имя файла C:\Users\house\Desktop\Яценко\Юрий Яценко (кобза) - Евгения Мирошниченко, ''Капелиста Музика'' Юрія Яценка. Любимые украинские мелодии..wav

Пиковый уровень 100.0 %
Скорость извлечения 1.8 X
Качество диапазона 99.9 %
CRC копии A605E1EB
Копирование... OK

Ошибок не произошло

Конец отчёта

---- CUETools DB Plugin V2.1.3

[CTDB TOCID: deOMtmpe.ro6SM0dIrxVz2uYX50-] disk not present in database, Submit result: deOMtmpe.ro6SM0dIrxVz2uYX50- has been uploaded

==== Контрольная сумма отчёта C388DC86B4D7536579187E39CACDAA9BD55E4E34388099D693ABCF5F7C36EE04 ====
Тривалість: 00:51:26
Мова: українська
Аудіо-кодек: FLAC
Бітрейт: 718 кб/с
Джерело: власний ріп з оригіналу
Додаткова інформація:

Цього диску нема ніде, а обкладинок так і взагалі, окрім лицьової. Тож закликаю до зберігання нашого музичного фонду!

Номер за каталогом: TBE-007-2

Що ж, добродії, запрошуємо з новими силами зануритись у різнобарв’я українських мелодій. Так вже склалося, що ще з 16 ст., коли в Україні виникли музичні цехи, основу репертуару всіх ансамблів складали, в першу чергу, народні пісні й танці. Це природно. Але так само природно і те, що з часом виникало все більше авторських обробок народних мелодій, перекладів їх для виконання на певних інструментах. І, гадаю, ніхто не заперечуватиме той факт, що якість і майстерність обробки, осмислення матеріалу безпосередньо впливає на зацікавленість слухача. Тому приємно, що на цьому диску представлено роботи визнаних вже майстрів – таких, як Михайло Завадський, Юрій Яценко. Останній, до речі, є відомим поліінстументалістом, завдяки якому відроджується у нас виконавство на ладковій кобзі, мандоліні, банджо та інших плекторних інструментах. Отже, добродії, повторюся – запрошуємо зануритись у різнобарв’я українських мелодій. Відшліфованих різнобарв’ям авторської уяви.

http://umka.com/ukr/catalogue/folk-instruments-academic-performing/jevhenija-miroshnychenko-yuriy-yatsenko-s-kapelysta-muzyka-uljubleni-ukrajins-ki-melodiji-favo.html


Якщо Ви справді бажаєте підтримати українське - після прослуховування, якщо музика вам сподобалась, придбайте ліцензійний диск. Підтримаймо вітчизняних виконавців!


Срібний реліз (на рейтинг впливає 50% завантаженого)
 Трекер:    Зареєстрований   

Завантажити / скачати українську музику



відео для новачків



 Зареєстрований:   2015-02-02 21:10
 Розмір:   279 MB 
 Оцінка музики:   10/10 (Голосів: 3)
   
kurgo 
Новенький


З нами з: 11.04.12
Востаннє: 25.11.16
Повідомлень: 15

2015-02-02 21:11  
Юрій Яценко - Сріблястий кобзи передзвін (2002) [APE] | Ethnic
http://toloka.to/t23917

Ваш часовий пояс: GMT + 2 Години

Нова тема   Відповісти