Завантажити та скачати торренти українською


Святий Вінсент / St. Vincent (2014) 720p Ukr/Eng | Sub Eng

Нові коментарі

Нова тема   Відповісти
Автор Повідомлення
Цікава ідея 
Поважний учасник


З нами з: 25.12.11
Востаннє: 08.04.16
Повідомлень: 169

2015-02-02 12:12  
Святий Вінсент / St. Vincent (2014) 720p Ukr/Eng | Sub Eng



Жанр: комедія, драма
Країна: США



Кінокомпанія: Chernin Entertainment, Crescendo Productions, Goldenlight Films
Режисер: Теодор Мелфі
Актори: Біл Мюрей, Меліса МаКарті, Наомі Вотс, Кріс О’Дауд, Теренс Говард

Сюжет:
Фільм про 12-літнього хлопчика, який, переживаючи розлучення своїх батьків. Він починає дружити з літнім сусідом, ветераном війни, п’яницею, який любить азартні ігри та повій. Цей геть не ідеальний та кумедний чоловік стає наставником хлопчика.


Українською мовою озвучено студією Цікава ідея на замовлення HURTOM.COM


Тривалість: 01:42:26
Якість:
Відео:
кодек:
розмір кадру: 1280x692
бітрейт: 3661 кб/с
CRF: 19

Аудіо # 1:
мова: українська | Цікава ідея
переклад: багатоголосий закадровий | Олекса Негребецький
кодек: 5.1
бітрейт: 448 кб/с

Аудіо # 2:
мова: англійська
переклад: оригінал
кодек: 5.1
бітрейт: 448 кб/с

Субтитри # 1:
мова: англійська
тип: програмні (м'які)
формат: *.srt

Скріншоти












Звіт MediaInfo
General
Unique ID : 206538332044785971368792766762033542700 (0x9B61D5F94666AF4BABCD85C1125EF62C)
Complete name : St. Vincent (2014) [ukr,eng] 720p [Hurtom].mkv
Format : Matroska
Format version : Version 4 / Version 2
File size : 3.33 GiB
Duration : 1h 42mn
Overall bit rate : 4 649 Kbps
Movie name : Святий Вінсент / St. Vincent (2014) [Hurtom]
Encoded date : UTC 2015-02-02 09:58:40
Writing application : mkvmerge v7.0.0 ('Where We Going') 32bit built on Jun 9 2014 15:08:34
Writing library : libebml v1.3.0 + libmatroska v1.4.1
DURATION : 01:36:44.760000000
NUMBER_OF_FRAMES : 984
NUMBER_OF_BYTES : 47147
_STATISTICS_WRITING_APP : mkvmerge v7.0.0 ('Where We Going') 32bit built on Jun 9 2014 15:08:34
_STATISTICS_WRITING_DATE_UTC : 2015-02-02 09:58:40
_STATISTICS_TAGS : BPS DURATION NUMBER_OF_FRAMES NUMBER_OF_BYTES
Attachment : Yes

Video
ID : 1
Format : AVC
Format/Info : Advanced Video Codec
Format profile : [email protected]
Format settings, CABAC : Yes
Format settings, ReFrames : 8 frames
Codec ID : V_MPEG4/ISO/AVC
Duration : 1h 42mn
Bit rate : 3 661 Kbps
Width : 1 280 pixels
Height : 692 pixels
Display aspect ratio : 1.85:1
Frame rate mode : Constant
Frame rate : 23.976 fps
Color space : YUV
Chroma subsampling : 4:2:0
Bit depth : 8 bits
Scan type : Progressive
Bits/(Pixel*Frame) : 0.172
Stream size : 2.62 GiB (79%)
Writing library : core 142 r2431 ac76440
Encoding settings : cabac=1 / ref=8 / deblock=1:-1:-1 / analyse=0x3:0x133 / me=umh / subme=10 / psy=1 / psy_rd=1.00:0.15 / mixed_ref=1 / me_range=32 / chroma_me=1 / trellis=2 / 8x8dct=1 / cqm=0 / deadzone=21,11 / fast_pskip=0 / chroma_qp_offset=-3 / threads=12 / lookahead_threads=1 / sliced_threads=0 / nr=0 / decimate=1 / interlaced=0 / bluray_compat=0 / constrained_intra=0 / bframes=3 / b_pyramid=2 / b_adapt=2 / b_bias=0 / direct=3 / weightb=1 / open_gop=0 / weightp=2 / keyint=240 / keyint_min=23 / scenecut=40 / intra_refresh=0 / rc_lookahead=60 / rc=crf / mbtree=1 / crf=19.0 / qcomp=0.60 / qpmin=0 / qpmax=69 / qpstep=4 / vbv_maxrate=31250 / vbv_bufsize=31250 / crf_max=0.0 / nal_hrd=none / filler=0 / ip_ratio=1.40 / aq=1:1.00
Default : Yes
Forced : No
DURATION : 01:42:26.140000000
NUMBER_OF_FRAMES : 147360
NUMBER_OF_BYTES : 2881911378
_STATISTICS_WRITING_APP : mkvmerge v7.0.0 ('Where We Going') 32bit built on Jun 9 2014 15:08:34
_STATISTICS_WRITING_DATE_UTC : 2015-02-02 09:58:40
_STATISTICS_TAGS : BPS DURATION NUMBER_OF_FRAMES NUMBER_OF_BYTES

Audio #1
ID : 2
Format : AC-3
Format/Info : Audio Coding 3
Mode extension : CM (complete main)
Format settings, Endianness : Big
Codec ID : A_AC3
Duration : 1h 42mn
Bit rate mode : Constant
Bit rate : 448 Kbps
Channel(s) : 6 channels
Channel positions : Front: L C R, Side: L R, LFE
Sampling rate : 48.0 KHz
Bit depth : 16 bits
Compression mode : Lossy
Stream size : 328 MiB (10%)
Title : Озвучено на замовлення hurtom.com
Language : Ukrainian
Default : Yes
Forced : No

Audio #2
ID : 3
Format : AC-3
Format/Info : Audio Coding 3
Mode extension : CM (complete main)
Format settings, Endianness : Big
Codec ID : A_AC3
Duration : 1h 42mn
Bit rate mode : Constant
Bit rate : 448 Kbps
Channel(s) : 6 channels
Channel positions : Front: L C R, Side: L R, LFE
Sampling rate : 48.0 KHz
Bit depth : 16 bits
Compression mode : Lossy
Stream size : 328 MiB (10%)
Title : Original
Language : English
Default : No
Forced : No

Text
ID : 4
Format : UTF-8
Codec ID : S_TEXT/UTF8
Codec ID/Info : UTF-8 Plain Text
Title : Original
Language : English
Default : No
Forced : No
log
[info]: frame I:1547 Avg QP:16.42 size:144725
[info]: frame P:39152 Avg QP:19.95 size: 38584
[info]: frame B:106661 Avg QP:22.67 size: 10757
[info]: consecutive B-frames: 1.6% 3.1% 7.6% 87.7%
[info]: mb I I16..4: 8.8% 71.0% 20.1%
[info]: mb P I16..4: 0.7% 5.7% 1.0% P16..4: 44.9% 20.8% 18.1% 0.6% 0.3% skip: 7.9%
[info]: mb B I16..4: 0.0% 0.7% 0.1% B16..8: 46.4% 7.9% 2.0% direct: 3.4% skip:39.4% L0:43.9% L1:48.4% BI: 7.7%
[info]: 8x8 transform intra:76.4% inter:62.5%
[info]: direct mvs spatial:99.9% temporal:0.1%
[info]: coded y,uvDC,uvAC intra: 84.2% 82.5% 60.3% inter: 21.8% 19.3% 6.7%
[info]: i16 v,h,dc,p: 37% 15% 13% 35%
[info]: i8 v,h,dc,ddl,ddr,vr,hd,vl,hu: 14% 9% 10% 9% 13% 12% 12% 11% 11%
[info]: i4 v,h,dc,ddl,ddr,vr,hd,vl,hu: 27% 9% 5% 7% 12% 11% 10% 9% 10%
[info]: i8c dc,h,v,p: 42% 21% 19% 18%
[info]: Weighted P-Frames: Y:1.7% UV:0.8%
[info]: ref P L0: 43.4% 10.9% 19.9% 6.8% 6.6% 4.7% 4.8% 2.6% 0.2% 0.0%
[info]: ref B L0: 71.4% 13.1% 6.8% 3.5% 2.7% 1.7% 0.8%
[info]: ref B L1: 93.0% 7.0%
[info]: kb/s:3751.18
Про озвучення

Проект "Хочеш кіно українською? Замовляй!"

Фільм озвучено в рамках серії номінантів на премію Оскар та Золотий глобус:
St. Vincent
Ida
Birdman
Nightcrawler
Tangerines
Still Alice
Selma
A most violent year
Mr. Turner
Wild

Підтримайте озвучення наступних фільмів


Джерело:

Фільми, які було озвучено на замовлення Гуртом (допоможіть озвучити наступні):
М: Місто шукає вбивцю (1931)
Чарівник країни Оз (1939)
Великий диктатор (1940)
Громадянин Кейн (1941)
Подвійна страховка (1944)
Це дивовижне життя (1946)
Викрадачі велосипедів (1948)
Рашьомон (1950)
Сім самураїв (1954)
У випадку вбивства телефонуйте "М" (1954)
Леді та Блудько (1955) нове
12 розгніваних чоловіків (1957)
Сьома печатка (1957)
На північ через північний захід (1959)
Більярдист (1961)
Охоронець (1961)
Вбити пересмішника (1962)
Людина, що вбила Ліберті Веленса (1962)
Вісім з половиною (1963)
Велика прогулянка (1966)
Як Ґрінч украв Різдво! (1966)
Випускник (1967)
Самурай (1967)
Одного разу на Дикому Заході (1968)
Коти-аристократи (1970)
Механічний апельсин (1971)
Навколо світу за 80 днів (1972) нове
Китайський квартал (1974)
Пролітаючи над гніздом зозулі (1975)
Телемережа (1976)
Енні Голл (1977) нове
Мисливець на оленів (1978)
Буття Брайана за Монті Пайтоном (1979)
Коли я буду там (1979)
Мангеттен (1979)
Людина-слон (1980)
Приборкання норовливого (1980)
Скажений бик (1980)
Підводний човен (1981)
Ґанді (1982)
Король комедії (1982) нове
Різдвяна історія (1983)
Амадей (1984)
Барва пурпурова (1985)
Бразилія (1985)
Ран (1985)
Великий мишачий детектив (1986)
Небесний замок Лапута (1986)
Акіра (1988)
Мій сусід Тоторо (1988)
Останній з могікан (1992)
Скажені пси (1992)
Шосе в нікуди (1997) нове
Американська історія Ікс (1998)
Страх і огида в Лас-Вегасі (1998)
Шоу Трумена (1998)
Догма (1999)
Магнолія (1999) нове
Сука любов (2000) нове
Нічия земля (2001)
Родина Тененбаумів (2001)
Тріо з Бельвіля (2003)
Труднощі перекладу (2003)
Бункер (2004)
Готель Руанда (2004)
Тренер Картер (2005)
Льодовиковий період 2 (2006)
Лабіринт Фавна (2006)
Людина з планети Земля (2007)
В тіні місяця (2007)
Голод (2008)
Іп Мен (2008)
Викрадена (2008)
Впусти мене (2008)
Хвиля (2008)
Містер Ніхто (2009)
13 вбивць (2010)
Бетмен: Під червоною маскою (2010)
Іп Мен 2 (2010)
Котяче життя (2010)
Позичайка Аріетті (2010)
Чорний Лебідь (2010)
Місто (2010)
Сенна (2010)
50/50 (2011)
Адвокат на лінкольні (2011)
Дерево життя (2011)
Опівночі в Парижі (2011)
Воїн (2011)
Драйв (2011)
Життя за один день (2011)
Укриття (2011)
Хижа в лісі (2011)
Рейд: Спокута (2011)
Акт вбивства (2012)
Арго (2012)
Безпека не гарантується (2012)
Викрадена 2 (2012)
Збірка промінців надії (2012)
Ернест і Селестіна (2012)
Звірі дикого Півдня (2012)
Лінкольн (2012)
Любов (2012)
Надійні хлопці (2012)
Паркер (2012)
Переваги скромників (2012)
Пліч-о-пліч (2012)
Полювання (2012)
Розірване коло (2012)
Суддя Дредд (2012)
Тридцять хвилин по півночі (2012)
Що б ви зробили (2012)
Американська афера (2013)
Виклик (2013)
Вона (2013)
Ворог (2013)
Всередині Л'ювіна Девіса (2013)
Джо (2013)
Зловісні мерці (2013)
Іда (2013)
Лок (2013)
Небраска (2013)
Неймовірна подорож містера Співета (2013) нове
Побічна дія (2013)
Перед північчю (2013)
Снігобур (2013)
Стокер (2013)
TPB: за межами клавіатури (2013)
Гниле місто (2013)
Бердмен (2014)
Вероніка Марс (2014)
Вроджена вада (2014) нове
Дика (2014) нове
Інтерв'ю (2014) нове
Святий Вінсент (2014)
Пісня моря (2014) нове
Призначення (2014) нове
Шеф-кухар (2014)


Авторський реліз (завантажувати можна без реєстрації)
 Трекер:    Зареєстрований   

Завантажити / скачати фільм українською



відео для новачків



 Зареєстрований:   2015-02-02 12:20
 Розмір:   3.33 GB 
 Оцінка фільму:   9.2/10 (Голосів: 20)
   
Інші релізи
ImfromUkraine 
VIP


З нами з: 18.02.12
Востаннє: 10.12.16
Повідомлень: 262

2015-02-03 02:58  
"Фільм про 12-літнього хлопчика, який, переживаючи розлучення своїх батьків." - щось тут не так)
ninenine 
Відео Гуртом - фільмокрай
Відео Гуртом - фільмокрай


З нами з: 23.10.09
Востаннє: 10.12.16
Повідомлень: 1147

2015-02-03 12:08  
1080p або Remux планується?
ivan vyrvyvuho 
VIP


З нами з: 19.08.12
Востаннє: 11.12.16
Повідомлень: 836

2015-02-07 22:34  
Досить цікавий фільм для мене, бо завжди повторюю до своїх: "якщо я на старості стану таким марудним пердуном, візьміть шуфлю і добряче трахніть мене по голові, може це допоможе і щось зміниться."
Є смішні моменти, але загалом фільм діє пригнічуюче, ніякого піднесення після перегляду, лише якась пустка.

Smitt011 
Свій


З нами з: 11.02.14
Востаннє: 20.11.16
Повідомлень: 85

2015-03-29 12:20  
Дивився вчора з дружиною, нам дуже сподобався! Гарний фыльм. Нагадав мені - "Gran Torino".
Ваш часовий пояс: GMT + 2 Години

Нова тема   Відповісти