Завантажити та скачати торренти українською


Мертва тиша [Розширена версія] / Dead Silence [Unrated] (2007) 720p Ukr/Eng | Sub Eng

Нові коментарі

Нова тема   Відповісти
Автор Повідомлення
braveboy 
Відео Гуртом - команда HD
Відео Гуртом - команда HD


З нами з: 15.06.10
Востаннє: 29.10.16
Повідомлень: 958

2015-01-28 04:51  

Мертва тиша [Розширена версія] / Dead Silence [Unrated] (2007) 720p Ukr/Eng | Sub Eng


Мертва тиша [Розширена версія] / Dead Silence [Unrated] (2007) 720p Ukr/Eng | Sub Eng


Жанр: містика, трилер, жахи
Країна: США


Кінокомпанія: Universal Pictures, Twisted Pictures, Evolution Entertainment
Режисер: Джеймс Ван / James Wan
Актори: Райан Квантен / Ryan Kwanten, Ембер Валлетта / Amber Valletta, Донні Волберг / Donnie Wahlberg, Майкл Фейрмен / Michael Fairman, Джоан Хіні / Joan Heney, Боб Гантон / Bob Gunton, Лаура Ріган / Laura Regan, Дмитрій Чеповецький / Dmitry Chepovetsky, Джудіт Робертс / Judith Roberts

Сюжет:
Молоде подружжя, Джеммі і Ліза, вирішили розпочати нове життя в маленькому містечку подалі від суєти величезних мегаполісів. Але, поселившись в цій покинутій, запустілій місцині, вони вже втомилися слухати казки про привидів і всю породу нечисті, що всюди мешкає. Після несподіваного звірячого вбивства Лізи, Джеммі, будучи головним підозрюваним в злочині, вирішує провести незалежне розслідування щодо її загадкової смерті.
Занурюючись у те, що він зовсім недавно вважав казками, хлопець дізнається легенду про якусь Мері, дух якої, за словами місцевих мешканців, все ще блукає пустинними вулицями міста. Цілком віддавшись дослідженню минулого цього місця, він незабаром натикається на найкривавіші подробиці і накликає на себе прокляття, яке і стало причиною смерті його дружини.


Тривалість: 01:31:30
Якість: 720p
Відео:
кодек:
розмір кадру: 1280 х 534
бітрейт: 5812 кб/с

Аудіо # 1:
мова: українська
переклад: багатоголосий закадровий
кодек: 5.1
бітрейт: 384 кб/с

Аудіо # 2:
мова: англійська
переклад: оригінал
кодек: 5.1
бітрейт: 640 кб/с

Джерело озвучення:
"ТакТреба Продакшн"
Субтитри:
мова: українська (Forced)
тип: програмні (м'які)
формат: *.srt

Субтитри:
мова: англійська (Full)
тип: програмні (м'які)
формат: *.srt
720p by braveboy
log

[info]: frame I:1207 Avg QP:14.79 size:104843
[info]: frame P:28248 Avg QP:16.34 size: 52558
[info]: frame B:102185 Avg QP:18.37 size: 23204
[info]: consecutive B-frames: 2.7% 2.7% 4.9% 19.0% 12.9% 47.8% 10.0%
[info]: mb I I16..4: 10.4% 74.2% 15.4%
[info]: mb P I16..4: 2.8% 22.8% 2.8% P16..4: 27.6% 21.1% 16.8% 0.7% 0.2% skip: 5.3%
[info]: mb B I16..4: 0.2% 3.5% 0.4% B16..8: 39.0% 17.1% 5.7% direct: 8.1% skip:26.0% L0:46.5% L1:42.6% BI:10.8%
[info]: 8x8 transform intra:81.4% inter:47.7%
[info]: coded y,uvDC,uvAC intra: 93.2% 77.3% 54.1% inter: 42.3% 28.7% 9.6%
[info]: i16 v,h,dc,p: 32% 7% 18% 42%
[info]: i8 v,h,dc,ddl,ddr,vr,hd,vl,hu: 11% 6% 9% 11% 14% 13% 13% 12% 12%
[info]: i4 v,h,dc,ddl,ddr,vr,hd,vl,hu: 15% 5% 4% 11% 15% 14% 13% 12% 13%
[info]: i8c dc,h,v,p: 41% 25% 20% 15%
[info]: Weighted P-Frames: Y:17.5% UV:11.7%
[info]: ref P L0: 40.6% 7.6% 20.2% 9.2% 7.9% 5.6% 5.0% 3.1% 0.7% 0.1%
[info]: ref B L0: 64.8% 15.7% 8.4% 4.8% 3.6% 1.9% 0.7%
[info]: ref B L1: 90.5% 9.5%
[info]: kb/s:5802.54
MediaInfo
Video
ID : 1
Format : AVC
Format/Info : Advanced Video Codec
Format profile : [email protected]
Format settings, CABAC : Yes
Format settings, ReFrames : 8 frames
Codec ID : V_MPEG4/ISO/AVC
Duration : 1h 31mn
Bit rate : 5 812 Kbps
Width : 1 280 pixels
Height : 534 pixels
Display aspect ratio : 2.40:1
Frame rate mode : Constant
Frame rate : 23.976 fps
Color space : YUV
Chroma subsampling : 4:2:0
Bit depth : 8 bits
Scan type : Progressive
Bits/(Pixel*Frame) : 0.355
Stream size : 3.62 GiB (83%)
Title : Dead Silence (2007) 720p by braveboy
Writing library : core 142 r2479 dd79a61
Encoding settings : cabac=1 / ref=8 / deblock=1:-2:-2 / analyse=0x3:0x133 / me=umh / subme=9 / psy=1 / psy_rd=0.85:0.00 / mixed_ref=1 / me_range=24 / chroma_me=1 / trellis=1 / 8x8dct=1 / cqm=0 / deadzone=21,11 / fast_pskip=0 / chroma_qp_offset=-2 / threads=3 / lookahead_threads=1 / sliced_threads=0 / nr=0 / decimate=0 / interlaced=0 / bluray_compat=0 / constrained_intra=0 / bframes=6 / b_pyramid=2 / b_adapt=2 / b_bias=0 / direct=1 / weightb=1 / open_gop=0 / weightp=2 / keyint=240 / keyint_min=24 / scenecut=40 / intra_refresh=0 / rc=2pass / mbtree=0 / bitrate=5812 / ratetol=1.0 / qcomp=0.60 / qpmin=10 / qpmax=51 / qpstep=4 / cplxblur=20.0 / qblur=0.5 / ip_ratio=1.40 / pb_ratio=1.30 / aq=1:1.00
Default : Yes
Forced : No

Audio #1
ID : 2
Format : AC-3
Format/Info : Audio Coding 3
Mode extension : CM (complete main)
Format settings, Endianness : Big
Codec ID : A_AC3
Duration : 1h 31mn
Bit rate mode : Constant
Bit rate : 384 Kbps
Channel(s) : 6 channels
Channel positions : Front: L C R, Side: L R, LFE
Sampling rate : 48.0 KHz
Bit depth : 16 bits
Compression mode : Lossy
Stream size : 251 MiB (6%)
Title : 5.1 @ 384 kbps [Ukraine]
Language : Ukrainian
Default : Yes
Forced : No

Audio #2
ID : 3
Format : AC-3
Format/Info : Audio Coding 3
Mode extension : CM (complete main)
Format settings, Endianness : Big
Codec ID : A_AC3
Duration : 1h 31mn
Bit rate mode : Constant
Bit rate : 640 Kbps
Channel(s) : 6 channels
Channel positions : Front: L C R, Side: L R, LFE
Sampling rate : 48.0 KHz
Bit depth : 16 bits
Compression mode : Lossy
Stream size : 419 MiB (9%)
Title : 5.1 @ 640 kbps
Language : English
Default : No
Forced : No

Text #1
ID : 4
Format : UTF-8
Codec ID : S_TEXT/UTF8
Codec ID/Info : UTF-8 Plain Text
Title : Forced
Language : Ukrainian
Default : Yes
Forced : No

Text #2
ID : 5
Format : UTF-8
Codec ID : S_TEXT/UTF8
Codec ID/Info : UTF-8 Plain Text
Title : Full
Language : English
Default : No
Forced : No

Menu
00:00:00.000 : en:00:00:00.000
00:03:34.005 : en:00:03:34.005
00:06:21.548 : en:00:06:21.548
00:12:26.204 : en:00:12:26.204
00:16:15.016 : en:00:16:15.016
00:18:53.382 : en:00:18:53.382
00:22:43.571 : en:00:22:43.571
00:28:45.933 : en:00:28:45.933
00:30:56.646 : en:00:30:56.646
00:38:09.496 : en:00:38:09.496
00:44:57.820 : en:00:44:57.820
00:48:35.037 : en:00:48:35.037
00:54:05.200 : en:00:54:05.200
00:58:21.748 : en:00:58:21.748
01:03:26.386 : en:01:03:26.386
01:08:44.704 : en:01:08:44.704
01:12:04.028 : en:01:12:04.028
01:20:09.847 : en:01:20:09.847
01:24:58.093 : en:01:24:58.093
01:27:18.233 : en:01:27:18.233
Скріншоти





 Трекер:    Зареєстрований   

Завантажити / скачати фільм українською



відео для новачків



 Зареєстрований:   2015-01-28 04:56
 Розмір:   4.36 GB 
 Оцінка фільму:   9.3/10 (Голосів: 7)
   
Інші релізи
УСС 
Новенький


З нами з: 17.08.10
Востаннє: 13.06.15
Повідомлень: 10

2015-01-28 07:57  
Станьте на роздачу.
Estranded 
VIP


З нами з: 09.02.14
Востаннє: 10.12.16
Повідомлень: 836

2015-01-28 14:32  
присутні неозвучені моменти?
braveboy 
Відео Гуртом - команда HD
Відео Гуртом - команда HD


З нами з: 15.06.10
Востаннє: 29.10.16
Повідомлень: 958

2015-01-28 16:57  
Estranded написано:
присутні неозвучені моменти?

так

Юрій Хмельницький 
Поважний учасник


З нами з: 22.09.14
Востаннє: 10.12.16
Повідомлень: 187

2015-09-19 01:26  
Інтригуючий, гостросюжетний. Одним словом шедевр!
Ваш часовий пояс: GMT + 2 Години

Нова тема   Відповісти