Завантажити та скачати торренти українською


Зворотна тяга / Backdraft (1991) 1080p Ukr/Eng

Нові коментарі

Нова тема   Відповісти
Автор Повідомлення
фізик Ужну 
Новенький


З нами з: 18.08.12
Востаннє: 09.12.16
Повідомлень: 7

2015-01-27 15:48  
Зворотна тяга / Backdraft (1991) 1080p Ukr/Eng

Зворотна тяга / Backdraft (1991) 1080p Ukr/Eng


Жанр: бойовик, трилер, драма, детектив, кримінальний
Країна: США



Кінокомпанія: Imagine Films Entertainment, Trilogy Entertainment Group
Режисер: Рон Говард (Ron Howard)
Композитор: Ганс Ціммер (Hans Zimmer)
Актори: Курт Расселл (Kurt Russell), Вілльям Болдвін (William Baldwin), Роберт Де Ніро (Robert De Niro), Дональд Сазерленд (Donald Sutherland), Дженніфер Джейсон Лейґ (Jennifer Jason Leigh), Скот Ґлен (Scott Glenn), Ребекка Де Морней (Rebecca De Mornay), Джейсон Ґедрік (Jason Gedrick) та інші.

Сюжет:
"Зворотна тяга" - це термін професійних пожежників. У результаті "зворотної тяги" гине батько Браяна і Стівена. На відміну від Стівена Браян відмовляється від кар'єри пожежника, але доля розпоряджається так, що брати опиняються в одному загоні. Стосунки між ними натягнуті. Незабаром молодший залишає команду, щоб разом зі слідчим спіймати маніяка-палія....
Номінації

Оскар, 1992 рік
Номінації (3):
Найкращий звук
Найкращий монтаж звуку
Найкращі візуальні ефекти

Премія каналу «MTV», 1992 рік
Номінації (2):
Найкраща екшн-сцена
Найкращий фільм

Британська академія, 1992 рік
Номінації (1):
Найкращі візуальні ефекти


Тривалість: 02:17:17
Якість: 1080p
Відео:
кодек:
розмір кадру: 1916х816
бітрейт: 14.3 мб/с

Аудіо # 1:
мова: українська
переклад: двоголосий закадровий
кодек: 5.1
бітрейт: 448 кб/с

Аудіо # 2:
мова: англійська
переклад: оригінал
кодек: 5.1
бітрейт: 1 509 кб/с
MediaInfo
H:\Фільми\Курт Рассел\Backdraft.1991.1080p.BluRay.Ukr.Eng.mkv
General
Complete name : H:\Фільми\Курт Рассел\Backdraft.1991.1080p.BluRay.Ukr.Eng.mkv
Format : Matroska
Format version : Version 4 / Version 2
File size : 13.7 GiB
Duration : 2h 17mn
Overall bit rate : 14.3 Mbps
Movie name : Backdraft (1991) - Release for HDCLUB by SbR
Encoded date : UTC 2014-12-29 20:28:15
Writing application : mkvmerge v6.0.0 ('Coming Up For Air') built on Jan 20 2013 09:52:00
Writing library : libebml v1.3.0 + libmatroska v1.4.0
Cover : Yes
Attachment : Yes
Video #1
ID : 1
Format : AVC
Format/Info : Advanced Video Codec
Format profile : [email protected]
Format settings, CABAC : Yes
Format settings, ReFrames : 5 frames
Codec ID : V_MPEG4/ISO/AVC
Duration : 2h 17mn
Bit rate : 12.3 Mbps
Width : 1 916 pixels
Height : 816 pixels
Display aspect ratio : 2.35:1
Frame rate mode : Constant
Frame rate : 23.976 fps
Color space : YUV
Chroma subsampling : 4:2:0
Bit depth : 8 bits
Scan type : Progressive
Bits/(Pixel*Frame) : 0.329
Stream size : 11.8 GiB (86%)
Title : Release for HDCLUB
Writing library : core 140 r2377+40 929f149 tMod [[email protected]:2:0 X86_64]
Encoding settings : cabac=1 / ref=5 / deblock=1:-2:-2 / analyse=0x3:0x113 / me=umh / subme=11 / psy=1 / fade_compensate=0.00 / psy_rd=1.00:0.00 / mixed_ref=1 / me_range=48 / chroma_me=1 / trellis=2 / 8x8dct=1 / cqm=0 / deadzone=21,11 / fast_pskip=1 / chroma_qp_offset=-2 / threads=12 / lookahead_threads=3 / sliced_threads=0 / nr=0 / decimate=1 / interlaced=0 / bluray_compat=0 / constrained_intra=0 / fgo=0 / bframes=10 / b_pyramid=2 / b_adapt=2 / b_bias=0 / direct=3 / weightb=1 / open_gop=0 / weightp=2 / keyint=250 / keyint_min=23 / scenecut=40 / intra_refresh=0 / rc_lookahead=60 / rc=crf / mbtree=0 / crf=19.0000 / qcomp=0.60 / qpmin=0:0:0 / qpmax=69:69:69 / qpstep=4 / vbv_maxrate=62500 / vbv_bufsize=78125 / crf_max=0.0 / nal_hrd=none / filler=0 / ip_ratio=1.40 / pb_ratio=1.30 / aq=4:0.80 / aq-sensitivity=11.00 / aq-factor=1.00:1.00:1.00 / aq2=1:0.60 / aq2-sensitivity=9.00 / aq2-factor=1.00:1.00:1.00 / aq3=1:[0.60:0.60]:[0.60:0.60]:[0.60:0.60]:[0.60:0.60] / aq3-sensitivity=10.00 / aq3-factor=[1.00:1.00]:[1.00:1.00]:[1.00:1.00] / aq3-boundary=192:64:24
Language : English
Default : Yes
Forced : No
Color primaries : BT.709
Transfer characteristics : BT.709
Matrix coefficients : BT.709
Audio #2
ID : 2
Format : AC-3
Format/Info : Audio Coding 3
Mode extension : CM (complete main)
Format settings, Endianness : Big
Codec ID : A_AC3
Duration : 2h 17mn
Bit rate mode : Constant
Bit rate : 192 Kbps
Channel(s) : 2 channels
Channel positions : Front: L R
Sampling rate : 48.0 KHz
Bit depth : 16 bits
Compression mode : Lossy
Stream size : 189 MiB (1%)
Title : DVO, 1+1
Language : Ukrainian
Default : No
Forced : No
Audio #3
ID : 3
Format :
Format/Info : Digital Theater Systems
Mode : 16
Format settings, Endianness : Big
Codec ID : A_DTS
Duration : 2h 17mn
Bit rate mode : Constant
Bit rate : 1 509 Kbps
Channel(s) : 6 channels
Channel positions : Front: L C R, Side: L R, LFE
Sampling rate : 48.0 KHz
Bit depth : 24 bits
Compression mode : Lossy
Stream size : 1.45 GiB (11%)
Language : English
Default : No
Forced : No
Скріншоти



Джерело: &
Особиста оцінка: 10 - без зайвих вагань рекомендую всім!


Срібний реліз (на рейтинг впливає 50% завантаженого)
 Трекер:    Зареєстрований   

Завантажити / скачати фільм українською



відео для новачків



 Зареєстрований:   2015-01-27 15:48
 Розмір:   13.73 GB 
 Оцінка фільму:   10/10 (Голосів: 6)
   
Інші релізи
   Зворотна тяга / Backdraft (1991) 2хUkr/Eng | Sub Eng MutuLI  5 / 0   3.09 GB   2014-04-23 20:22 
   Зворотна тяга / Backdraft (1991) 720p Ukr/Eng | Sub Eng Віктор  1 / 0   7.54 GB   2011-09-14 10:15 
   Зворотна тяга / Backdraft (1991) Кіт Баюн  3 / 0   1.51 GB   2009-02-01 12:05 
Virake 
Localize Team
Localize Team


З нами з: 07.07.09
Востаннє: 10.12.16
Повідомлень: 4074

2015-01-27 19:19  
скріншоти мають бути у вигляді повних зображень чи мініатюр, а не посилань.
lemberg_star 
Новенький


З нами з: 24.10.10
Востаннє: 14.11.16
Повідомлень: 21

2015-01-27 22:47  
фільм крутяк, правда дивився років з десять назад
kino. 
Модератор відео


З нами з: 27.06.10
Востаннє: 10.12.16
Повідомлень: 2900

2015-01-28 06:20  
фізик Ужну написано:

Аудіо:
мова: українська
переклад: професійний дубльований
кодек: 5.1
бітрейт: 448 кб/с

Точно?

фізик Ужну написано:
Зворотна тяга / Backdraft (1991) 1080p Ukr/Eng

В описі не бачу.

Додай доріжку з НЛО-TV http://toloka.to/t27985

igor911 
Відео Гуртом
Відео Гуртом


З нами з: 18.01.08
Востаннє: 10.12.16
Повідомлень: 5215

2015-01-28 09:24  
Скріншоти мають бути в png.
Ваш часовий пояс: GMT + 2 Години

Нова тема   Відповісти