Завантажити та скачати торренти українською


Дні грому / Days of Thunder (1990) Ukr/Eng | sub Ukr/Eng

Нові коментарі

Нова тема   Відповісти
Автор Повідомлення
igoryek 
Новенький


З нами з: 17.10.14
Востаннє: 27.11.16
Повідомлень: 16

2015-01-26 18:52  
Дні грому / Days of Thunder (1990) Ukr/Eng | sub Ukr/Eng

Дні грому / Days of Thunder (1990) Ukr/Eng | sub Ukr/Eng


Жанр: драма, спорт, мелодрама
Країна: США



Кінокомпанія: Paramount Pictures
Режисер: Тоні Скотт / Tony Scott
Актори: Том Круз, Ніколь Кідман, Роберт Дювалл, Ренді Куейд, Кері Елвіс, Майкл Рукер

Сюжет:
Гонщик Коул Трікл молодий і мало кому відомий, але він не боїться швидкості й на повному ходу може вписатися в найкрутіший поворот. На гонках головним суперником Коула стає більш досвідчений спортсмен Роуді Бернс. Але ні Коул, ні Роуді не доходять до фінішної риси: відбувається сильне зіткнення, в результаті якого суперники виявляються в одній лікарняній палаті. Коул тимчасово втрачає зір, і тому не може оцінити красу свого окуліста, Клер Левік. Зір швидко повертається, але Клер попереджає Коула, що йому не можна повертатися в небезпечний спорт до повного одужання. Засмучені відстороненням від участі в змаганні, Роуді і Коул влаштовують видовищну гонку на інвалідних колясках по лікарняних коридорах. Ці двоє знайдуть в собі сили повернутися на справжню трасу, і один з них візьме головний приз...


Тривалість: 01:47:18
Якість:
Відео:
кодек:
розмір кадру: 720 х 304
бітрейт: 1991 кб/с

Аудіо # 1:
мова: українська
переклад: багатоголосий закадровий
кодек: 5.1
бітрейт: 448 кб/с

Аудіо # 2:
мова: англійська
переклад: оригінал
кодек: 5.1
бітрейт: 448 кб/с

Джерело озвучення:


Субтитри:
мова: українська by urij546724
тип: програмні (м'які)
формат: *.srt

Субтитри:
мова: англійська
тип: програмні (м'які)
формат: *.srt
Скріншоти
MediaInfo
General
Complete name : D:\Video\Movies\Hurtom\Days of Thunder (1990) [Ukr-Eng] [Hurtom+HQ Underverse].avi
Format : AVI
Format/Info : Audio Video Interleave
Format profile : OpenDML
File size : 2.18 GiB
Duration : 1h 47mn
Overall bit rate : 2 905 Kbps
Writing application : VirtualDubMod 1.5.10.3 | www.virtualdub-fr.org || (build 2550/release)
Writing library : VirtualDubMod build 2550/release

Video
ID : 0
Format : MPEG-4 Visual
Format profile : Advanced [email protected]
Format settings, BVOP : 1
Format settings, QPel : No
Format settings, GMC : No warppoints
Format settings, Matrix : Custom
Codec ID :
Codec ID/Hint :
Duration : 1h 47mn
Bit rate : 1 991 Kbps
Width : 720 pixels
Height : 304 pixels
Display aspect ratio : 2.35:1
Frame rate : 23.976 fps
Color space : YUV
Chroma subsampling : 4:2:0
Bit depth : 8 bits
Scan type : Progressive
Compression mode : Lossy
Bits/(Pixel*Frame) : 0.379
Stream size : 1.49 GiB (69%)
Writing library : 64

Audio #1
ID : 1
Format : AC-3
Format/Info : Audio Coding 3
Mode extension : CM (complete main)
Format settings, Endianness : Big
Codec ID : 2000
Duration : 1h 47mn
Bit rate mode : Constant
Bit rate : 448 Kbps
Channel(s) : 6 channels
Channel positions : Front: L C R, Side: L R, LFE
Sampling rate : 48.0 KHz
Bit depth : 16 bits
Compression mode : Lossy
Stream size : 344 MiB (15%)
Alignment : Split accross interleaves
Interleave, duration : 42 ms (1.00 video frame)
Interleave, preload duration : 500 ms
Title : Ukrainian MVO (Inter)

Audio #2
ID : 2
Format : AC-3
Format/Info : Audio Coding 3
Mode extension : CM (complete main)
Format settings, Endianness : Big
Codec ID : 2000
Duration : 1h 47mn
Bit rate mode : Constant
Bit rate : 448 Kbps
Channel(s) : 6 channels
Channel positions : Front: L C R, Side: L R, LFE
Sampling rate : 48.0 KHz
Bit depth : 16 bits
Compression mode : Lossy
Stream size : 344 MiB (15%)
Alignment : Split accross interleaves
Interleave, duration : 42 ms (1.00 video frame)
Interleave, preload duration : 500 ms
Title : English
Подяка:

1. Пану MAKAPOHHIK за запис звуку з ТБ.
2. Пану urij546724 за синхронізацію доріжки


Джерело: &
Особиста оцінка: 8 - мені сподобалося


Срібний реліз (на рейтинг впливає 50% завантаженого)
 Трекер:    Зареєстрований   

Завантажити / скачати фільм українською



відео для новачків



 Зареєстрований:   2015-01-26 18:52
 Розмір:   2.18 GB 
 Оцінка фільму:   9.7/10 (Голосів: 9)
   
Інші релізи
bogdanich 
VIP


З нами з: 24.10.13
Востаннє: 02.12.16
Повідомлень: 352

2015-01-27 00:46  
Гарне кіно!
Ваш часовий пояс: GMT + 2 Години

Нова тема   Відповісти