Завантажити та скачати торренти українською


Безсмертні / Війна Богів: Безсмертні / Immortals (2011) 720p Ukr/Eng

Нові коментарі

Нова тема   Відповісти
Автор Повідомлення
Beffis 
Модератор DVD


З нами з: 17.09.09
Востаннє: 09.12.16
Повідомлень: 339

2015-01-26 12:23  
Безсмертні / Війна Богів: Безсмертні / Immortals (2011) 720p Ukr/Eng

Безсмертні / Війна Богів: Безсмертні / Immortals (2011) 720p Ukr/Eng


Жанр: бойовик, пригодницький, фентезі, драма
Країна: США



Кінокомпанія: Relativity Media, Virgin Produced, Rogue / Universal Pictures
Режисер: Тарсем Сінґ
Актори: Генрі Кавілл, Фріда Пінто, Міккі Рурк, Келлан Латс, Люк Еванс, Джон Харт, Ізабель Лукас, Стівен Дорфф, Корі Севье, Стів Байерс, Романо Орзарі, Стівен МакХетті, Пітер Стеббінгс, Джозеф Морган, Деніел Шарман

Сюжет:
Юнак Тесей, простий селянин, живе з матір'ю в селі на березі моря. Він хоробрий і мужній, його наставник, місцевий старий, навчив Тесея володінню мечем і списом. Мати Тесея відвідує місцевий храм, однак Тесей не дуже вірить у богів. Тим часом деспотичний і владний цар Гіперіон оголошує богам війну за те, що вони дозволили померти його сім'ї: він хоче відшукати Епірський Лук, зроблений руками бога війни Ареса, і звільнити титанів від тисячолітнього ув'язнення в горах Тартар. Військо Гіперіона поступово завойовує Елладу, в одному з храмів якої повинен зберігатися лук.

Тим часом Зевс, який перебував на Землі у вигляді того самого старого (наставника Тесея), підноситься на Олімп, де зустрічається зі своїми дітьми. Він каже їм, що незважаючи на співчуття до людей, боги не повинні втручатися в їхні справи, поки титани не будуть звільнені.

Під час нападу на село Тесея, Гіперіон вбиває його мати на очах у сина. Тесея відправляють як раба на соляні копальні. Там же в полоні виявляється і діва-оракул Федра, яка впізнає Тесея як того обраного, який звільнить Елладу. Тесеєві і Федрі вдається втекти разом з іншими рабами, в тому числі Ставросом. Тесей хоче переслідувати Гіперіона, проте Федрі приходить видіння, через який вона просить Тесея спочатку повернутися в рідне село і поховати матір. Тесей повертається і ховає мати в храмі, при цьому йому вдається випадково виявити замурований там Епірський Лук. Він бореться з Мінотавром, посланим Гіперіоном, і перемагає його.

Тесей з супутниками слідують за Гіперіоном, проте солдати царя роззброюють їх і забирають Епірський Лук, який передають Гіперіон. Афіна і Арес втручаються і вбивають тих хто напав на Тесея та його друзів; побачивши, що діти не послухалися його, Зевс впадає в лють і вбиває Ареса. Однак Афіна дає Тесеєві і Федрі коней, щоб вони швидше дісталися до воріт у гори Тартар, за якими ховаються залишки армії еллінів. Гіперіон пропонує Тесею перейти на його сторону, але той відмовляється і піднімає еллінів на бій з величезним військом Гіперіона. Під час бою Гіперіон за допомогою лука звільняє титанів, які вступають у сутичку з богами. Тесей же бореться з Гіперіоном і врешті-решт вбиває його, хоча і сам гине від ран. Як герой, який врятував свою країну, він підноситься на Олімп. Зевс обвалює гору Тартар, що змушує військо Гіперіона в страху бігти.

В епілозі Зевс в образі старого говорить з хлопчиком, сином Тесея від Федри, і повідомляє йому, що скоро на небесах розпочнеться велика війна, в якій його батько Тесей виступить на стороні богів.


Тривалість: 01:50:26
Якість:
Відео:
кодек:
розмір кадру: 1280x692
бітрейт: 5 576 кб/с

Аудіо # 1:
мова: українська
переклад: професійний дубльований
кодек: 5.1
бітрейт: 448 кб/с
Переклад і озвучення виконано:
студією "Tretyakoff production", звук записано з телеканалу 1+1
Аудіо # 2:
мова: англійська
переклад: оригінал
кодек: 5.1
бітрейт: 1536кб/с

Джерело озвучення:
MediaInfo
General
Unique ID : 202464225202709544422096984634615315602 (0x985130FF7E136CBA917F5D721EC2BC92)
Complete name : D:\Гуртом\Immortals (2011) 720p [HURTOM] by Beffis .mkv
Format : Matroska
Format version : Version 4 / Version 2
File size : 5.81 GiB
Duration : 1h 50mn
Overall bit rate : 7 530 Kbps
Movie name : Immortals (2011) - Release for HDCLUB by HANSMER
Encoded date : UTC 2015-01-26 09:35:43
Writing application : mkvmerge v7.5.0 ('Glass Culture') 64bit built on Jan 4 2015 16:48:44
Writing library : libebml v1.3.1 + libmatroska v1.4.2
_STATISTICS_WRITING_APP : mkvmerge v7.5.0 ('Glass Culture') 64bit built on Jan 4 2015 16:48:44
_STATISTICS_WRITING_DATE_UTC : 2015-01-26 09:35:43
_STATISTICS_TAGS : BPS DURATION NUMBER_OF_FRAMES NUMBER_OF_BYTES
DURATION : 01:50:26.795000000
NUMBER_OF_FRAMES : 621262
NUMBER_OF_BYTES : 1249981424

Video
ID : 1
Format : AVC
Format/Info : Advanced Video Codec
Format profile : [email protected]
Format settings, CABAC : Yes
Format settings, ReFrames : 9 frames
Codec ID : V_MPEG4/ISO/AVC
Duration : 1h 50mn
Bit rate : 5 576 Kbps
Width : 1 280 pixels
Height : 692 pixels
Display aspect ratio : 1.85:1
Frame rate mode : Constant
Frame rate : 23.976 fps
Color space : YUV
Chroma subsampling : 4:2:0
Bit depth : 8 bits
Scan type : Progressive
Bits/(Pixel*Frame) : 0.263
Stream size : 4.18 GiB (72%)
Title : Release for HDCLUB by HANSMER
Writing library : core 120 r2164 da19765
Encoding settings : cabac=1 / ref=9 / deblock=1:-3:-3 / analyse=0x3:0x133 / me=umh / subme=10 / psy=1 / psy_rd=1.00:0.00 / mixed_ref=1 / me_range=48 / chroma_me=1 / trellis=2 / 8x8dct=1 / cqm=0 / deadzone=21,11 / fast_pskip=0 / chroma_qp_offset=-2 / threads=12 / sliced_threads=0 / nr=0 / decimate=0 / interlaced=0 / bluray_compat=0 / constrained_intra=0 / bframes=8 / b_pyramid=2 / b_adapt=2 / b_bias=0 / direct=3 / weightb=1 / open_gop=0 / weightp=2 / keyint=240 / keyint_min=24 / scenecut=40 / intra_refresh=0 / rc=2pass / mbtree=0 / bitrate=5576 / ratetol=1.0 / qcomp=0.70 / qpmin=0 / qpmax=69 / qpstep=4 / cplxblur=20.0 / qblur=0.5 / ip_ratio=1.50 / pb_ratio=1.25 / aq=1:1.10 / zones=146636,158883,b=0.1
Language : English
Default : Yes
Forced : No
DURATION : 01:50:26.787000000
NUMBER_OF_FRAMES : 158884
NUMBER_OF_BYTES : 4614577205
_STATISTICS_WRITING_APP : mkvmerge v7.5.0 ('Glass Culture') 64bit built on Jan 4 2015 16:48:44
_STATISTICS_WRITING_DATE_UTC : 2015-01-26 09:35:43
_STATISTICS_TAGS : BPS DURATION NUMBER_OF_FRAMES NUMBER_OF_BYTES

Audio #1
ID : 2
Format : AC-3
Format/Info : Audio Coding 3
Mode extension : CM (complete main)
Format settings, Endianness : Big
Codec ID : A_AC3
Duration : 1h 50mn
Bit rate mode : Constant
Bit rate : 448 Kbps
Channel(s) : 6 channels
Channel positions : Front: L C R, Side: L R, LFE
Sampling rate : 48.0 KHz
Bit depth : 16 bits
Compression mode : Lossy
Stream size : 354 MiB (6%)
Title : 5.1 448 кб/с
Language : Ukrainian
Default : Yes
Forced : No

Audio #2
ID : 3
Format :
Format/Info : Digital Theater Systems
Mode : 16
Format settings, Endianness : Big
Codec ID : A_DTS
Duration : 1h 50mn
Bit rate mode : Constant
Bit rate : 1 509 Kbps
Channel(s) : 6 channels
Channel positions : Front: L C R, Side: L R, LFE
Sampling rate : 48.0 KHz
Bit depth : 24 bits
Compression mode : Lossy
Stream size : 1.16 GiB (20%)
Title : 5.1 1536 kbps
Language : English
Default : No
Forced : No

Menu
00:00:00.000 : en:Chapter 1
00:03:02.516 : en:Chapter 2
00:06:53.580 : en:Chapter 3
00:11:02.328 : en:Chapter 4
00:15:26.342 : en:Chapter 5
00:19:13.444 : en:Chapter 6
00:23:16.186 : en:Chapter 7
00:26:21.121 : en:Chapter 8
00:30:00.424 : en:Chapter 9
00:33:42.729 : en:Chapter 10
00:37:49.809 : en:Chapter 11
00:42:09.235 : en:Chapter 12
00:45:57.088 : en:Chapter 13
00:53:58.735 : en:Chapter 14
00:57:41.333 : en:Chapter 15
01:01:39.654 : en:Chapter 16
01:04:53.681 : en:Chapter 17
01:09:38.216 : en:Chapter 18
01:16:19.325 : en:Chapter 19
01:23:25.709 : en:Chapter 20
01:27:41.631 : en:Chapter 21
01:31:35.699 : en:Chapter 22
01:38:12.929 : en:Chapter 23
01:41:55.943 : en:Chapter 24
Скріншоти
Подяки:
За українську доріжку: наданий звук:Dark Invader 2, akon111, sando7 та xslim. Зведення Romario_O



Джерело: &
Особиста оцінка: 10 - без зайвих вагань рекомендую всім!


 Трекер:    Зареєстрований   

Завантажити / скачати фільм українською



відео для новачків



 Зареєстрований:   2015-01-26 12:23
 Розмір:   5.81 GB 
 Оцінка фільму:   8.7/10 (Голосів: 19)
   
Сонцеслав 
VIP


З нами з: 26.01.11
Востаннє: 21.11.16
Повідомлень: 385

2015-01-26 16:19  
Бачив це кіно в кінотератрі.
Промова Тесея перед боєм може стати джерелом натхнення для українських героїв.

Beffis 
Модератор DVD


З нами з: 17.09.09
Востаннє: 09.12.16
Повідомлень: 339

2015-01-26 17:21  
Один з кращих фільмів,пригодницьких.
boroznaya 
VIP


З нами з: 02.11.12
Востаннє: 09.12.16
Повідомлень: 1885

2015-07-12 09:44  
Що зі звуком, схоже на лайн?
Ваш часовий пояс: GMT + 2 Години

Нова тема   Відповісти