Завантажити та скачати торренти українською


Вартові галактики / Guardians of the Galaxy (2014) 1080p IMAX Edition Ukr/Eng | Sub Eng

Нові коментарі

Нова тема   Відповісти
Автор Повідомлення
neo3703 
Свій


З нами з: 12.05.10
Востаннє: 10.12.16
Повідомлень: 77

2015-01-25 21:54  
Вартові галактики [IMAX Edition]

Guardians of the Galaxy (2014) 1080p [IMAX Edition] Ukr/Eng | Sub Eng


Вартові галактики / Guardians of the Galaxy (2014) 1080p IMAX Edition Ukr/Eng | Sub Eng


Жанр: екшн, пригодницький, фантастика
Країна: США, Велика Британія



Кінокомпанія: Marvel Studios, Marvel Enterprises, Moving Picture Company (MPC)
Режисер: Джеймс Ґанн
Актори: Кріс Претт, Зої Салдана, Дейв Батіста, Він Дізель, Бредлі Купер, Лі Пейс, Майкл Рукер, Карен Ґіллан, Джімон Гонсу, Джон Сі Райлі

Сюжет:
Пітер Квілл стає жертвою мисливців за головами після крадіжки таємничої сфери, за якою полював Ронан - могутній лиходій, повний амбіцій і загрозливий для цілого всесвіту. Щоб здолати Ронана, Пітеру доводиться об'єднатися з квартетом покидьків: озброєним до зубів єнотом Ракетою, деревоподібним гуманоїдом Ґрутом, смертельно небезпечною і загадковою Гаморою і мстивим Драксом-Руйнівником. Але коли Пітер виявляє справжню силу сфери та дізнається наскільки вона небезпечна для космосу, він повинен зробити все можливе, щоб згуртувати всіх членів команди для останнього протистояння і повернути баланс у всій Галактиці.


Тривалість: 02:00:51
Якість:
Відео:
кодек:
розмір кадру: 1920 х 1080
бітрейт: 10000 кб/с

Аудіо # 1:
мова: українська
переклад: професійний дубльований
кодек: -HD 5.1
бітрейт: 1 509 кб/с

Аудіо # 2:
мова: англійська
переклад: оригінал
кодек: 5.1
бітрейт: 1 509 кб/с

Субтитри:
мова: англійська
тип: програмні (м'які)
формат: *.srt
MediaInfo
General
Unique ID : 209726233903858034019159543233313550562 (0x9DC7CDAB9DA8D9678FBE333AE3A4B0E2)
Complete name : D:\Фантастика\Вартові галактики Guardians of the Galaxy (2014) [ 1080p IMAX Edition].mkv
Format : Matroska
Format version : Version 4 / Version 2
File size : 10.7 GiB
Duration : 2h 1mn
Overall bit rate : 12.6 Mbps
Movie name : Стражи.Галактики_Guardians.of.the.Galaxy.2014..1080p.IMAX
Encoded date : UTC 2015-01-25 19:12:33
Writing application : mkvmerge v6.9.1 ('Blue Panther') 64bit built on Apr 18 2014 18:23:38
Writing library : libebml v1.3.0 + libmatroska v1.4.1

Video
ID : 1
Format : AVC
Format/Info : Advanced Video Codec
Format profile : [email protected]
Format settings, CABAC : Yes
Format settings, ReFrames : 4 frames
Codec ID : V_MPEG4/ISO/AVC
Duration : 2h 1mn
Bit rate : 10 000 Kbps
Width : 1 920 pixels
Height : 1 080 pixels
Display aspect ratio : 16:9
Frame rate mode : Constant
Frame rate : 23.976 fps
Color space : YUV
Chroma subsampling : 4:2:0
Bit depth : 8 bits
Scan type : Progressive
Bits/(Pixel*Frame) : 0.201
Stream size : 8.23 GiB (77%)
Title : Стражи.Галактики_Guardians.of.the.Galaxy.2014..1080p.IMAX
Writing library : core 142 r2431 ac76440
Encoding settings : cabac=1 / ref=4 / deblock=1:-3:-3 / analyse=0x3:0x113 / me=umh / subme=10 / psy=1 / psy_rd=1.00:0.05 / mixed_ref=1 / me_range=32 / chroma_me=1 / trellis=2 / 8x8dct=1 / cqm=0 / deadzone=21,11 / fast_pskip=0 / chroma_qp_offset=-2 / threads=18 / lookahead_threads=1 / sliced_threads=0 / nr=0 / decimate=1 / interlaced=0 / bluray_compat=0 / constrained_intra=0 / bframes=4 / b_pyramid=2 / b_adapt=2 / b_bias=0 / direct=3 / weightb=1 / open_gop=0 / weightp=2 / keyint=250 / keyint_min=23 / scenecut=40 / intra_refresh=0 / rc=2pass / mbtree=0 / bitrate=10000 / ratetol=1.0 / qcomp=0.70 / qpmin=0 / qpmax=69 / qpstep=4 / cplxblur=20.0 / qblur=0.5 / ip_ratio=1.40 / pb_ratio=1.30 / aq=2:1.00
Language : English
Default : Yes
Forced : No

Audio #1
ID : 2
Format :
Format/Info : Digital Theater Systems
Mode : 16
Format settings, Endianness : Big
Codec ID : A_DTS
Duration : 2h 1mn
Bit rate mode : Constant
Bit rate : 1 509 Kbps
Channel(s) : 6 channels
Channel positions : Front: L C R, Side: L R, LFE
Sampling rate : 48.0 KHz
Bit depth : 24 bits
Compression mode : Lossy
Stream size : 1.28 GiB (12%)
Title : Професійне дублювання 1536k
Language : Ukrainian
Default : Yes
Forced : Yes

Audio #2
ID : 3
Format :
Format/Info : Digital Theater Systems
Mode : 16
Format settings, Endianness : Big
Codec ID : A_DTS
Duration : 2h 1mn
Bit rate mode : Constant
Bit rate : 1 509 Kbps
Channel(s) : 6 channels
Channel positions : Front: L C R, Side: L R, LFE
Sampling rate : 48.0 KHz
Bit depth : 24 bits
Compression mode : Lossy
Stream size : 1.28 GiB (12%)
Title : Оригінал 1509k
Language : English
Default : No
Forced : No

Text
ID : 4
Format : UTF-8
Codec ID : S_TEXT/UTF8
Codec ID/Info : UTF-8 Plain Text
Language : English
Default : No
Forced : No

Menu
00:00:00.000 : en:00:00:00.000
00:04:05.704 : en:00:04:05.704
00:11:21.806 : en:00:11:21.806
00:15:21.712 : en:00:15:21.712
00:20:54.420 : en:00:20:54.420
00:27:11.213 : en:00:27:11.213
00:33:58.828 : en:00:33:58.828
00:44:28.291 : en:00:44:28.291
00:50:53.008 : en:00:50:53.008
00:55:17.564 : en:00:55:17.564
00:59:45.207 : en:00:59:45.207
01:06:06.921 : en:01:06:06.921
01:14:46.023 : en:01:14:46.023
01:22:20.644 : en:01:22:20.644
01:26:29.726 : en:01:26:29.726
01:30:23.877 : en:01:30:23.877
01:35:58.378 : en:01:35:58.378
01:40:46.749 : en:01:40:46.749
01:47:35.366 : en:01:47:35.366
01:53:16.623 : en:01:53:16.623
02:00:10.829 : en:02:00:10.829
Скріншоти























Джерело:
Особиста оцінка: 10 - без зайвих вагань рекомендую всім!


 Трекер:    Зареєстрований   

Завантажити / скачати фільм українською



відео для новачків



 Зареєстрований:   2015-01-26 03:43
 Розмір:   10.99 GB 
 Оцінка фільму:   9.9/10 (Голосів: 28)
   
GolovkoAnton 
Новенький


З нами з: 17.01.11
Востаннє: 10.12.16
Повідомлень: 21

2015-01-26 13:56  
Чим відрізняється від http://toloka.to/t59372 (не враховуючи бітрейтів)?
NeetScrool 
Відео Гуртом - фільмокрай
Відео Гуртом - фільмокрай


З нами з: 10.01.13
Востаннє: 10.12.16
Повідомлень: 2228

2015-01-26 14:15  
GolovkoAnton
розміром кадру

Andriy26 
Новенький


З нами з: 20.11.09
Востаннє: 11.08.16
Повідомлень: 3

2015-04-02 16:25  
Де роздача, зупинивсяна 75,8% !!!?
Ваш часовий пояс: GMT + 2 Години

Нова тема   Відповісти