Завантажити та скачати торренти українською


VA - Українські застільні пісні 10 (2008) [FLAC] | Folk

Нові коментарі

Нова тема   Відповісти
Автор Повідомлення
kurmunke 
Свій


З нами з: 06.11.13
Востаннє: 08.12.16
Повідомлень: 60

2015-01-23 19:50  
VA - Українські застільні пісні 10 (2008) [FLAC] | Folk

VA - Українські застільні пісні 10 (2008) [FLAC] | Folk


Стиль: Folk
Країна: Україна
Видавець: МПП фірма "МЕД"
Виконавці:
А. Грех, Н. Тарасюк, М. Стародуб, Т. Чирик та А. Кок
Пісні:
    01. А. Грех та Н. Тарасюк - В саду гуляла (04:34)
    02. Н. Тарасюк - Два дубочки (04:07)
    03. М. Стародуб - Застільна (03:45)
    04. Т. Чирик - Зелене листя (04:47)
    05. Н. Тарасюк - Кущ калини (05:55)
    06. М. Стародуб та Т. Чирик - По садочку ходжу (04:46)
    07. Н. Тарасюк - У вишневому садочку (04:58)
    08. Т. Чирик - Цвіте терен (04:26)
    09. А. Кок - Ой, волошки (03:34)
    10. А. Кок - Ой, у вишневому садочку (04:11)
    11. М. Стародуб - Підманула (06:13)
    12. М. Стародуб та Т. Чирик - Несе Галя воду (04:12)
    13. А. Грех - Розпрягайте, хлопці, коні (04:22)
    14. А. Грех - Три криниченьки (04:50)
    15. А. Грех - Ніч яка місячна (03:40)
    16. М. Стародуб - Хто родився (06:02)

Тривалість: 01:14:31
Мова: українська
Аудіо-кодек: FLAC
Бітрейт: 1013 кб/с
Джерело: Власний диск
Додаткова інформація:
Диск має назву "Українські застільні пісні", але попередні диски цієї серії мали назву "Українські застольні пісні".

В роздачі присутня тека зі спектром кожної пісні. Якість різних пісень різна, тому можете окремо завантажити теку зі спектрами щоб подивитись на якість кожної пісні.
Аналіз якості пісень з программи Tau Analyzer

.log

Exact Audio Copy V1.0 beta 3 from 29. August 2011

EAC extraction logfile from 24. January 2015, 2:17

VA / Українські застільні пісні 10

Used drive : TSSTcorpCDDVDW SH-222AB Adapter: 0 ID: 3

Read mode : Secure
Utilize accurate stream : Yes
Defeat audio cache : Yes
Make use of C2 pointers : No

Read offset correction : 6
Overread into Lead-In and Lead-Out : No
Fill up missing offset samples with silence : Yes
Delete leading and trailing silent blocks : No
Null samples used in CRC calculations : Yes
Used interface : Native Win32 interface for Win NT & 2000

Used output format : User Defined Encoder
Selected bitrate : 1024 kBit/s
Quality : High
Add ID3 tag : No
Command line compressor : C:\Program Files (x86)\Exact Audio Copy\Flac\flac.exe
Additional command line options : -8 -V %source%

TOC of the extracted CD

Track | Start | Length | Start sector | End sector
---------------------------------------------------------
1 | 0:00.00 | 4:34.74 | 0 | 20623
2 | 4:34.74 | 4:07.63 | 20624 | 39211
3 | 8:42.62 | 3:45.73 | 39212 | 56159
4 | 12:28.60 | 4:47.24 | 56160 | 77708
5 | 17:16.09 | 5:55.41 | 77709 | 104374
6 | 23:11.50 | 4:46.36 | 104375 | 125860
7 | 27:58.11 | 4:58.01 | 125861 | 148211
8 | 32:56.12 | 4:26.70 | 148212 | 168231
9 | 37:23.07 | 3:34.36 | 168232 | 184317
10 | 40:57.43 | 4:11.49 | 184318 | 203191
11 | 45:09.17 | 6:13.72 | 203192 | 231238
12 | 51:23.14 | 4:12.16 | 231239 | 250154
13 | 55:35.30 | 4:22.29 | 250155 | 269833
14 | 59:57.59 | 4:50.50 | 269834 | 291633
15 | 64:48.34 | 3:40.74 | 291634 | 308207
16 | 68:29.33 | 6:02.33 | 308208 | 335390

Range status and errors

Selected range

Filename M:\Музика\VA - Українські застільні пісні 10.wav

Peak level 100.0 %
Extraction speed 3.3 X
Range quality 100.0 %
Test CRC 6B910018
Copy CRC 6B910018
Copy OK

No errors occurred

AccurateRip summary

Track 1 not present in database
Track 2 not present in database
Track 3 not present in database
Track 4 not present in database
Track 5 not present in database
Track 6 not present in database
Track 7 not present in database
Track 8 not present in database
Track 9 not present in database
Track 10 not present in database
Track 11 not present in database
Track 12 not present in database
Track 13 not present in database
Track 14 not present in database
Track 15 not present in database
Track 16 not present in database

None of the tracks are present in the AccurateRip database

End of status report
Завантажити альбом у .mp3



Якщо Ви справді бажаєте підтримати українське - після прослуховування, якщо музика вам сподобалась, придбайте ліцензійний диск. Підтримаймо вітчизняних виконавців!


Срібний реліз (на рейтинг впливає 50% завантаженого)
 Трекер:    Зареєстрований   

Завантажити / скачати українську музику



відео для новачків



 Зареєстрований:   2015-01-24 02:21
 Розмір:   555 MB 
 Оцінка музики:   10/10 (Голосів: 7)
   
ssTAss 
Модератор музики


З нами з: 05.07.08
Востаннє: 08.12.16
Повідомлень: 10947

2015-01-23 21:08  
kurmunke написано:
Деякі назви пісень на обкладинці CD диску трохи інакші, але я вирішив що вони не достатньо інформативні, тому замінив на більш відомі назви, наприклад на обкладинці назва пісні "Два дубочки", а я її замінив на "Ой на горі два дубки".

а оце не можна робити
треба викладати як є (хіба сплутали порядок файлів чи інший "важкий" огріх)
напишіть нормальний трек-ліст і змініть файл куе

kurmunke 
Свій


З нами з: 06.11.13
Востаннє: 08.12.16
Повідомлень: 60

2015-01-23 23:12  
Цитата:
треба викладати як є (хіба сплутали порядок файлів чи інший "важкий" огріх)

Порядок файлів нормальний
Цитата:
напишіть нормальний трек-ліст і змініть файл куе

Змінив!

Торент змінено, назви треків виправлені.

ssTAss 
Модератор музики


З нами з: 05.07.08
Востаннє: 08.12.16
Повідомлень: 10947

2015-01-24 00:58  
переробили на потрековий ріп чи так було? чому питаю, бо потрековий ріп (щоб був точний) треба вміти знімати - проміжки, тиша, прегап і все таке... тобто, значно складніше ніж образом
але вже як є

kurmunke 
Свій


З нами з: 06.11.13
Востаннє: 08.12.16
Повідомлень: 60

2015-01-24 01:32  
Цитата:
переробили на потрековий ріп чи так було?

Так і було, але можу переробити якщо потрібно, про такі нюанси не знав.

UPD: переробив на один файл + .cue

qawsed78 
Новенький


З нами з: 07.04.15
Востаннє: 02.12.15
Повідомлень: 1

2015-11-19 17:07  
Слава Україні.
Ваш часовий пояс: GMT + 2 Години

Нова тема   Відповісти