Завантажити та скачати торренти українською


Реальне кохання / Реальна любов / Love Actually (2003) 1080p 4xUkr/Eng | Sub Eng

Нові коментарі

Нова тема   Відповісти
Автор Повідомлення
demotyvator 
Частий відвідувач


З нами з: 24.02.12
Востаннє: 11.12.16
Повідомлень: 35

2015-01-21 17:36  
Реальне кохання / Реальна любов / Love Actually (2003) 1080p 4xUkr/Eng | Sub Eng

Реальне кохання / Реальна любов / Love Actually (2003) 1080p 4xUkr/Eng | Sub Eng


Жанр: комедія, мелодрама , драма
Країна: США, Великобританія, Франція



Кінокомпанія: Universal Pictures, StudioCanal, Working Title Films
Режисер: Річард Кертіс
Актори: Біл Найі, Ґреґор Фішер, Колін Ферт, Лаям Нісон, Кіра Найтлі, Г'ю Ґрант, Алан Рікмен та інші

Вікові обмеження: 16+

Сюжет:
Кохання - прекрасне, вічне, незабутнє, сумне, несподіване, небажане, незручне, нез'ясовне, граційне, нерівне тощо. Кохання справді керує всім навколо. Долі та любовні романи декількох лондонців стикаються, перемішуються і досягають апогею напередодні Різдва - знову, знову і знову, що призводить до романтичних, веселих і, часом, сумних наслідків...


Тривалість: 02:14:52
Якість: 1080p
Відео:
кодек:
розмір кадру: 1920 х 816
бітрейт: ~12.9 Мбіт/с

Аудіо # 1:
мова: українська
переклад: багатоголосий закадровий
кодек: 5.1
бітрейт: 448 кб/с
Про озвучення
Ролі озвучили: Михайло Тишин, ще один чоловічий, Катерина Буцька і Тетяна Антонова?
Озвучено та перекладено студією «ТВ+ на замовлення Lipton
Аудіо # 2:
мова: українська
переклад: багатоголосий закадровий
кодек: 2.0
бітрейт: 192 кб/с
Про озвучення
Ролі озвучили: Володимир Терещук, Юрій Гребельник, Людмила Чиншева і ще один жіночий
Аудіо # 3:
мова: українська
переклад: двоголосий закадровий
кодек: 2.0
бітрейт: 192 кб/с
Про озвучення
Аудіо # 4:
мова: українська
переклад: двоголосий закадровий
кодек: 2.0
бітрейт: 192 кб/с

Аудіо # 5:
мова: англійська
переклад: оригінал
кодек: 5.1
бітрейт: 1536 кб/с

Аудіо # 6:
мова: англійська
переклад: оригінал | коментарі
кодек: 2.0
бітрейт: 47 кб/с

Субтитри:
мова: англійська
тип: програмні (м'які)
формат: *.srt

Збережено оригінальні чаптери
MediaInfo
General
Complete name : Love Actually (2003) [4xUkr, Eng. Sub Eng] 1080p [demotyvator] [Hurtom].mkv
Format : Matroska
File size : 14.6 GiB
Duration : 2h 14mn
Overall bit rate : 15.4 Mbps
Movie name : Реальне кохання / Реальна любов / Love Actually (2003) [Hurtom]
Encoded date : UTC 2015-01-05 19:35:11
Writing application : mkvmerge v5.6.0 ('Kenya Kane') built on May 27 2012 16:44:04
Writing library : libebml v1.2.3 + libmatroska v1.3.0

Video
ID : 1
Format : AVC
Format/Info : Advanced Video Codec
Format profile : [email protected]
Format settings, CABAC : Yes
Format settings, ReFrames : 5 frames
Muxing mode : Container [email protected]
Codec ID : V_MPEG4/ISO/AVC
Duration : 2h 14mn
Nominal bit rate : 12.9 Mbps
Width : 1 920 pixels
Height : 816 pixels
Display aspect ratio : 2.35:1
Frame rate : 23.976 fps
Resolution : 8 bits
Colorimetry : 4:2:0
Scan type : Progressive
Bits/(Pixel*Frame) : 0.342
Title : @ 12683 kb/s
Writing library : core 80 r1376M 3feaec2
Encoding settings : cabac=1 / ref=5 / deblock=1:-2:-1 / analyse=0x3:0x113 / me=umh / subme=10 / psy=1 / psy_rd=0.9:0.2 / mixed_ref=1 / me_range=24 / chroma_me=1 / trellis=2 / 8x8dct=1 / cqm=0 / deadzone=21,11 / fast_pskip=0 / chroma_qp_offset=-3 / threads=6 / sliced_threads=0 / nr=0 / decimate=0 / mbaff=0 / constrained_intra=0 / bframes=5 / b_pyramid=2 / b_adapt=2 / b_bias=0 / direct=3 / wpredb=1 / wpredp=2 / keyint=250 / keyint_min=25 / scenecut=40 / rc_lookahead=70 / rc=2pass / mbtree=1 / bitrate=12863 / ratetol=1.0 / qcomp=0.70 / qpmin=10 / qpmax=51 / qpstep=4 / cplxblur=20.0 / qblur=0.5 / vbv_maxrate=38000 / vbv_bufsize=38000 / ip_ratio=1.30 / aq=1:1.00

Audio #1
ID : 2
Format : AC-3
Format/Info : Audio Coding 3
Codec ID : A_AC3
Duration : 2h 14mn
Bit rate mode : Constant
Bit rate : 448 Kbps
Channel(s) : 6 channels
Channel positions : Front: L C R, Surround: L R, LFE
Sampling rate : 48.0 KHz
Stream size : 432 MiB (3%)
Title : 5.1 448 кб/с | Багатоголосий закадровий | DVD
Language : Ukrainian

Audio #2
ID : 3
Format : AC-3
Format/Info : Audio Coding 3
Codec ID : A_AC3
Duration : 2h 14mn
Bit rate mode : Constant
Bit rate : 192 Kbps
Channel(s) : 2 channels
Channel positions : L R
Sampling rate : 48.0 KHz
Stream size : 185 MiB (1%)
Title : 2.0 192 кб/с | Багатоголосий закадровий | К1
Language : Ukrainian

Audio #3
ID : 4
Format : AC-3
Format/Info : Audio Coding 3
Codec ID : A_AC3
Duration : 2h 14mn
Bit rate mode : Constant
Bit rate : 192 Kbps
Channel(s) : 2 channels
Channel positions : L R
Sampling rate : 48.0 KHz
Stream size : 185 MiB (1%)
Title : 2.0 192 кб/с | Двоголосий закадровий | 1+1
Language : Ukrainian

Audio #4
ID : 5
Format : AC-3
Format/Info : Audio Coding 3
Codec ID : A_AC3
Duration : 2h 14mn
Bit rate mode : Constant
Bit rate : 192 Kbps
Channel(s) : 2 channels
Channel positions : L R
Sampling rate : 48.0 KHz
Stream size : 185 MiB (1%)
Title : 2.0 192 кб/с | Двоголосий закадровий | НТН
Language : Ukrainian

Audio #5
ID : 6
Format :
Format/Info : Digital Theater Systems
Codec ID : A_DTS
Duration : 2h 14mn
Bit rate mode : Constant
Bit rate : 1 510 Kbps
Channel(s) : 6 channels
Channel positions : Front: L C R, Surround: L R, LFE
Sampling rate : 48.0 KHz
Resolution : 24 bits
Stream size : 1.42 GiB (10%)
Title : 5.1 1536 кб/с | Оригінал

Audio #6
ID : 7
Format :
Format/Info : Advanced Audio Codec
Format version : Version 4
Format profile : LC
Format settings, SBR : No
Format settings, PS : Yes
Codec ID : A_AAC
Duration : 2h 14mn
Channel(s) : 2 channels
Channel positions : Front: L R
Sampling rate : 48.0 KHz
Title : LC 1.0 47 кб/с | Коментарі

Text #1
ID : 8
Format : UTF-8
Codec ID : S_TEXT/UTF8
Codec ID/Info : UTF-8 Plain Text
Title : Forced

Text #2
ID : 9
Format : UTF-8
Codec ID : S_TEXT/UTF8
Codec ID/Info : UTF-8 Plain Text
Title : Full

Menu
00:00:00.000 : :00:00:00.000
00:12:06.309 : :00:12:06.309
00:22:40.943 : :00:22:40.943
00:33:20.123 : :00:33:20.123
00:46:38.629 : :00:46:38.629
00:58:21.081 : :00:58:21.081
01:06:25.064 : :01:06:25.064
01:15:52.798 : :01:15:52.798
01:27:25.574 : :01:27:25.574
01:38:52.927 : :01:38:52.927
01:48:32.089 : :01:48:32.089
01:58:07.664 : :01:58:07.664
Скріншоти


Велика подяка за надані українські доріжки пану ratbol


Джерело: &


 Трекер:    Зареєстрований   

Завантажити / скачати фільм українською



відео для новачків



 Зареєстрований:   2015-01-21 17:36
 Розмір:   14.55 GB 
 Оцінка фільму:   9.3/10 (Голосів: 4)
   
Premer_Joker 
Частий відвідувач


З нами з: 22.01.13
Востаннє: 10.12.16
Повідомлень: 26

2015-11-23 11:04  
Роздайте, будь ласка))
Ваш часовий пояс: GMT + 2 Години

Нова тема   Відповісти