Завантажити та скачати торренти українською


У долині Ела / In the Valley of Elah (2007) 720р Ukr/Eng

Нові коментарі

Нова тема   Відповісти
Автор Повідомлення
Beffis 
Модератор DVD


З нами з: 17.09.09
Востаннє: 10.12.16
Повідомлень: 339

2015-01-21 11:23  
У долині Ела / In the Valley of Elah (2007) 720р Ukr/Eng

У долині Ела / In the Valley of Elah (2007) 720р Ukr/Eng


Жанр: Драма
Країна: США



Кінокомпанія: Blackfriars Bridge | NALA Films LLC | Samuels Media | Summit Entertainment
Режисер: Пол Хаггіс
Актори: Томмі Лі Джонс, Шарліз Терон, Джейсон Патрік, Сьюзен Сарандон, Джеймс Франко, Беррі Корбін, Джош Бролін, Френсіс Фішер, Уес Четхем, Джейк МакЛафлін

Сюжет:
Коли солдат Майк Дірфілд несподівано пропадає без вісті після повернення з Іраку, його батько, офіцер Хенк, намагається відшукати сина. Але не все так просто, як здається на перший погляд.


Тривалість: 02:01:16
Якість:
Відео:
кодек:
розмір кадру: 1280x528
бітрейт: 4 519 кб/с

Аудіо # 1:
мова: українська
переклад: багатоголосий закадровий
кодек: 5.1
бітрейт: 384 кб/с

Аудіо # 2:
мова: англійська
переклад: оригінал
кодек: 5.1
бітрейт: 640 кб/с

Джерело озвучення:
MediaInfo
General
Unique ID : 203726491423135218068450176898657802298 (0x99444B87109C20E582D372011C65D83A)
Complete name : D:\Гуртом\In the Valley of Elah (2007) 720р UkrEng .mkv
Format : Matroska
Format version : Version 4 / Version 2
File size : 4.68 GiB
Duration : 2h 1mn
Overall bit rate : 5 528 Kbps
Encoded date : UTC 2015-01-20 16:37:11
Writing application : mkvmerge v7.5.0 ('Glass Culture') 64bit built on Jan 4 2015 16:48:44
Writing library : libebml v1.3.1 + libmatroska v1.4.2
_STATISTICS_WRITING_APP : mkvmerge v7.5.0 ('Glass Culture') 64bit built on Jan 4 2015 16:48:44
_STATISTICS_WRITING_DATE_UTC : 2015-01-20 16:37:11
_STATISTICS_TAGS : BPS DURATION NUMBER_OF_FRAMES NUMBER_OF_BYTES
DURATION : 02:01:17.312000000
NUMBER_OF_FRAMES : 227416
NUMBER_OF_BYTES : 582184960

Video
ID : 1
Format : AVC
Format/Info : Advanced Video Codec
Format profile : [email protected]
Format settings, CABAC : Yes
Format settings, ReFrames : 6 frames
Codec ID : V_MPEG4/ISO/AVC
Duration : 2h 1mn
Bit rate : 4 519 Kbps
Width : 1 280 pixels
Height : 528 pixels
Display aspect ratio : 2.40:1
Frame rate mode : Constant
Frame rate : 23.976 fps
Color space : YUV
Chroma subsampling : 4:2:0
Bit depth : 8 bits
Scan type : Progressive
Bits/(Pixel*Frame) : 0.279
Stream size : 3.72 GiB (79%)
Title : ViDEO
Writing library : core 58 svn-736M
Encoding settings : cabac=1 / ref=6 / deblock=1:0:0 / analyse=0x3:0x113 / me=umh / subme=6 / me-prepass=0 / brdo=1 / mixed_ref=1 / me_range=12 / chroma_me=1 / trellis=1 / 8x8dct=1 / cqm=0 / deadzone=21,11 / chroma_qp_offset=0 / threads=6 / nr=0 / decimate=0 / mbaff=0 / bframes=3 / b_pyramid=0 / b_adapt=1 / b_bias=0 / direct=3 / wpredb=1 / bime=1 / keyint=240 / keyint_min=24 / scenecut=40(pre) / rc=2pass / bitrate=4519 / ratetol=1.0 / rceq='blurCplx^(1-qComp)' / qcomp=1.00 / qpmin=10 / qpmax=51 / qpstep=4 / cplxblur=20.0 / qblur=0.5 / vbv_maxrate=25000 / vbv_bufsize=9000 / ip_ratio=1.40 / pb_ratio=1.30 / aq=1:0.5:13.0
Language : English
Default : Yes
Forced : No
DURATION : 02:01:17.240000000
NUMBER_OF_FRAMES : 174479
NUMBER_OF_BYTES : 4094940190
_STATISTICS_WRITING_APP : mkvmerge v7.5.0 ('Glass Culture') 64bit built on Jan 4 2015 16:48:44
_STATISTICS_WRITING_DATE_UTC : 2015-01-20 16:37:11
_STATISTICS_TAGS : BPS DURATION NUMBER_OF_FRAMES NUMBER_OF_BYTES

Audio #1
ID : 2
Format : AC-3
Format/Info : Audio Coding 3
Mode extension : CM (complete main)
Format settings, Endianness : Big
Codec ID : A_AC3
Duration : 2h 1mn
Bit rate mode : Constant
Bit rate : 384 Kbps
Channel(s) : 6 channels
Channel positions : Front: L C R, Side: L R, LFE
Sampling rate : 48.0 KHz
Bit depth : 16 bits
Compression mode : Lossy
Stream size : 333 MiB (7%)
Title : 384 kbps
Language : Ukrainian
Default : Yes
Forced : No

Audio #2
ID : 3
Format : AC-3
Format/Info : Audio Coding 3
Mode extension : CM (complete main)
Format settings, Endianness : Big
Codec ID : A_AC3
Duration : 2h 1mn
Bit rate mode : Constant
Bit rate : 640 Kbps
Channel(s) : 6 channels
Channel positions : Front: L C R, Side: L R, LFE
Sampling rate : 48.0 KHz
Bit depth : 16 bits
Compression mode : Lossy
Stream size : 555 MiB (12%)
Title : 640 kbps
Language : English
Default : No
Forced : No
Скріншоти
Джерело: &
Особиста оцінка: 0 - не дивився


 Трекер:    Зареєстрований   

Завантажити / скачати фільм українською



відео для новачків



 Зареєстрований:   2015-01-21 11:23
 Розмір:   4.68 GB 
 Оцінка фільму:   10/10 (Голосів: 6)
   
Інші релізи
Ваш часовий пояс: GMT + 2 Години

Нова тема   Відповісти