Завантажити та скачати торренти українською


Зсув по пошті / Going Postal (2010) 720p Ukr/Eng | Sub Eng

Нові коментарі

Нова тема   Відповісти
Автор Повідомлення
leroykendall 
Модератор HD


З нами з: 03.01.11
Востаннє: 20.11.16
Повідомлень: 749

2015-01-20 21:43  
Зсув по пошті / Going Postal (2010) 720p Ukr/Eng | Sub Eng

Зсув по пошті / Going Postal (2010) 720p Ukr/Eng | Sub Eng


Жанр: фантастика, комедія
Країна: Велика Британія





Кінокомпанія: All3Media International, Mid Atlantic Films
Режисер: Джон Джонс (Jon Jones)
Актори: Річард Койл (Richard Coyle), Девід Суше (David Suchet), Клер Фой (Claire Foy), Ендрю Сакс (Andrew Sachs), Чарльз Денс (Charles Dance), Тімоті Уест (Timothy West), Стів Пембертон (Steve Pemberton), Пол Барбер (Paul Barber), Джон Хеншоу (John Henshaw), Дон Уоррінгтон (Don Warrington), Террі Пратчетт (Terry Pratchett)

Сюжет:
У житті кожної людини є нелегкі рішення. Мойст ван Ліпвіг, шахрай, майстер художньої підробки і справжній фахівець з фальшивок, теж стоїть перед непростим вибором: бути повішеним або поставити Поштову Службу Анк-Морпорка з ніг на голову. Тепер він повинен стежити за тим, щоб, незважаючи на дощ, сніг, собак, бездоріжжя, Доброзичливу Профспілку Поштових Працівників, скрупульозно чесних і етичних конкурентів і опівнічні вбивства, пошта, як і завжди, вчасно доставлялась за призначенням.


Тривалість: 03:02:15
Якість: 720p
Відео:
кодек:
розмір кадру: 1280 х 720
бітрейт: 6964 кб/с

Аудіо # 1:
мова: українська
переклад: багатоголосий закадровий
кодек: 2.0
бітрейт: 192 кб/с

Аудіо # 2:
мова: англійська
переклад: оригінал
кодек: 5.1
бітрейт: 640 кб/с

Субтитри:
мова: англійська
тип: програмні (м'які)
формат: *.srt

Збережені оригінальні чаптери як на Blu-ray.
MediaInfo
Код:
General
Unique ID                                : 201735682398044214164895437064779050119 (0x97C4E11082A9418C91B238A056AFAC87)
Complete name                            : V:\Going Postal (2010) [Ukr, Eng] 720p [Hurtom] by leroykendall.mkv
Format                                   : Matroska
Format version                           : Version 4 / Version 2
File size                                : 9.93 GiB
Duration                                 : 3h 2mn
Overall bit rate                         : 7 797 Kbps
Encoded date                             : UTC 2015-01-19 22:35:05
Writing application                      : mkvmerge v6.2.0 ('Promised Land') built on Apr 28 2013 12:22:01
Writing library                          : libebml v1.3.0 + libmatroska v1.4.0

Video
ID                                       : 1
Format                                   : AVC
Format/Info                              : Advanced Video Codec
Format profile                           : [email protected]
Format settings, CABAC                   : Yes
Format settings, ReFrames                : 8 frames
Codec ID                                 : V_MPEG4/ISO/AVC
Duration                                 : 3h 2mn
Bit rate                                 : 6 964 Kbps
Width                                    : 1 280 pixels
Height                                   : 720 pixels
Display aspect ratio                     : 16:9
Frame rate mode                          : Constant
Frame rate                               : 25.000 fps
Color space                              : YUV
Chroma subsampling                       : 4:2:0
Bit depth                                : 8 bits
Scan type                                : Progressive
Bits/(Pixel*Frame)                       : 0.302
Stream size                              : 8.67 GiB (87%)
Title                                    : Going Postal (2010) 720p [Hurtom]
Writing library                          : core 104 r1713 c276662
Encoding settings                        : cabac=1 / ref=8 / deblock=1:-3:-3 / analyse=0x3:0x133 / me=umh / subme=9 / psy=1 / psy_rd=1.00:0.00 / mixed_ref=1 / me_range=32 / chroma_me=1 / trellis=2 / 8x8dct=1 / cqm=0 / deadzone=21,11 / fast_pskip=0 / chroma_qp_offset=-2 / threads=12 / sliced_threads=0 / nr=0 / decimate=0 / interlaced=0 / constrained_intra=0 / bframes=10 / b_pyramid=2 / b_adapt=2 / b_bias=0 / direct=3 / weightb=1 / open_gop=0 / weightp=2 / keyint=250 / keyint_min=25 / scenecut=40 / intra_refresh=0 / rc_lookahead=60 / rc=2pass / mbtree=0 / bitrate=6964 / ratetol=1.0 / qcomp=0.60 / qpmin=10 / qpmax=51 / qpstep=4 / cplxblur=20.0 / qblur=0.5 / vbv_maxrate=50000 / vbv_bufsize=62500 / ip_ratio=1.40 / pb_ratio=1.30 / aq=1:0.80 / nal_hrd=none
Language                                 : English
Default                                  : Yes
Forced                                   : No

Audio #1
ID                                       : 2
Format                                   : AC-3
Format/Info                              : Audio Coding 3
Mode extension                           : CM (complete main)
Format settings, Endianness              : Big
Codec ID                                 : A_AC3
Duration                                 : 3h 2mn
Bit rate mode                            : Constant
Bit rate                                 : 192 Kbps
Channel count                            : 2 channels
Channel positions                        : Front: L R
Sampling rate                            : 48.0 KHz
Bit depth                                : 16 bits
Compression mode                         : Lossy
Stream size                              : 250 MiB (2%)
Title                                    : 2.0 @ 192 кб/с - К1
Language                                 : Ukrainian
Default                                  : Yes
Forced                                   : No

Audio #2
ID                                       : 3
Format                                   : AC-3
Format/Info                              : Audio Coding 3
Mode extension                           : CM (complete main)
Format settings, Endianness              : Big
Codec ID                                 : A_AC3
Duration                                 : 3h 2mn
Bit rate mode                            : Constant
Bit rate                                 : 640 Kbps
Channel count                            : 6 channels
Channel positions                        : Front: L C R, Side: L R, LFE
Sampling rate                            : 48.0 KHz
Bit depth                                : 16 bits
Compression mode                         : Lossy
Stream size                              : 834 MiB (8%)
Title                                    : 5.1 @ 640 kbps
Language                                 : English
Default                                  : No
Forced                                   : No

Text
ID                                       : 4
Format                                   : UTF-8
Codec ID                                 : S_TEXT/UTF8
Codec ID/Info                            : UTF-8 Plain Text
Language                                 : English
Default                                  : No
Forced                                   : No

Menu
00:00:00.000                             : en:00:00:00.000
00:09:05.039                             : en:00:09:05.039
00:16:57.679                             : en:00:16:57.679
00:23:45.960                             : en:00:23:45.960
00:32:25.759                             : en:00:32:25.759
00:41:32.400                             : en:00:41:32.400
00:50:04.360                             : en:00:50:04.360
00:57:53.719                             : en:00:57:53.719
01:06:55.599                             : en:01:06:55.599
01:17:29.359                             : en:01:17:29.359
01:25:07.279                             : en:01:25:07.279
01:32:01.840                             : en:01:32:01.840
01:34:01.039                             : en:01:34:01.039
01:40:45.359                             : en:01:40:45.359
01:49:59.000                             : en:01:49:59.000
01:57:56.600                             : en:01:57:56.600
02:06:26.479                             : en:02:06:26.479
02:13:37.600                             : en:02:13:37.600
02:21:20.639                             : en:02:21:20.639
02:28:20.600                             : en:02:28:20.600
02:37:34.879                             : en:02:37:34.879
02:45:46.959                             : en:02:45:46.959
02:51:22.520                             : en:02:51:22.520
02:59:10.040                             : en:02:59:10.040
Скріншоти:






Подяка
п. Vasua95 за еталонний реліз та український звук



Джерело: &
Особиста оцінка: 8 - мені сподобалося


 Трекер:    Зареєстрований   

Завантажити / скачати фільм українською



відео для новачків



 Зареєстрований:   2015-01-20 21:43
 Розмір:   9.93 GB 
 Оцінка фільму:   9.1/10 (Голосів: 8)
   
Інші релізи
   Зсув по пошті / Going Postal (2010) AngryBirdsUA  14 / 0   2.9 GB   2014-09-07 14:23 
assman 
VIP


З нами з: 09.11.09
Востаннє: 04.12.16
Повідомлень: 375

2015-01-21 00:11  
Недавно переглянув - не усі цей фільм зрозуміють, але він просто бомбезний Wink (2)
ksanka45 
Свій


З нами з: 04.06.11
Востаннє: 01.12.16
Повідомлень: 128

2015-01-21 04:31  
Так, фільм, як і книга, чудовий. Однак вимагаю перейменувати його на "Поштанутися" ("Поштанутий") Wide grin
leroykendall 
Модератор HD


З нами з: 03.01.11
Востаннє: 20.11.16
Повідомлень: 749

2015-01-21 07:21  
ksanka45
Я так розумію питання риторичне і ви знаєте відповідь: за правилами переклад назви береться з озвучення.

Ваш часовий пояс: GMT + 2 Години

Нова тема   Відповісти