Завантажити та скачати торренти українською


Кохай і танцюй / Kochaj i tańcz (2009) 1080p Ukr/Pol | Sub Ukr/Eng

Нові коментарі

Нова тема   Відповісти
Автор Повідомлення
demotyvator 
Частий відвідувач


З нами з: 24.02.12
Востаннє: 07.12.16
Повідомлень: 35

2015-01-17 16:27  
Кохай і танцюй / Kochaj i tańcz (2009) 1080p Ukr/Pol | Sub Ukr/Eng

Кохай і танцюй / Kochaj i tańcz (2009) 1080p Ukr/Pol | Sub Ukr/Eng


Жанр: романтичний
Країна: Польща



Кінокомпанія: TVN
Режисер: Брюс Парраморе (Bruce Parramore)
Актори: Матеуш Даменцкі (Mateusz Damiecki), Ізабелла Міко (Izabella Miko), Віолетта Арлак (Violetta Arlak), Анна Босак (Anna Bosak), Катажина Фігура (Katarzyna Figura), Рома Гонщеровска (Roma Gasiorowska), Антоніна Гірич (Antonina Girycz), Кшиштоф Глебіш (Krzysztof Globisz)...
Усі актори
Матеуш Даменцкі (Mateusz Damiecki), Ізабелла Міко (Izabella Miko), Віолетта Арлак (Violetta Arlak), Анна Босак (Anna Bosak), Катажина Фігура (Katarzyna Figura), Рома Гонщеровска (Roma Gasiorowska), Антоніна Гірич (Antonina Girycz), Кшиштоф Глебіш (Krzysztof Globisz), Катажина Херман (Katarzyna Herman), Олів'є Жаньяк (Olivier Janiak), Домініка Клузняк (Dominika Kluzniak), Яцек Коман (Jacek Koman), Марчін Корч (Marcin Korcz), Зора Корольов (Zora Korolyov), Мачей Козловський (Maciej Kozlowski), Рафал Круліковський (Rafal Królikowski), Войцех Мецвальдовський (Wojciech Mecwaldowski), Александер Міколайчак (Aleksander Mikolajczak), Сільвія Наяч (Sylwia Najach), Івона Павлович (Iwona Pavlovic), Модест Русинський (Modest Rucinski), Рафаль Рутковський (Rafal Rutkowski), Здзіслав Ріхтер (Zdzislaw Rychter), Сенді К Шелбі (Sandi K Shelby), Маріуш Слупіньский (Mariusz Slupinski), Войцех Соларш (Wojciech Solarz), Єва Шабатіна (Ewa Szabatin), Павло Томашевський (Pawel Tomaszewski), Павло Тухольський (Pawel Tucholski), Якуб Весоловський (Jakub Wesolowski), Бланка Вінярська (Blanka Winiarska)
Сюжет:
Ханя - початкуюча журналістка, яка отримала перше замовлення на статтю, а Войтек працює на будівництві. Ханя готується до свого весілля, а Войтек хоче брати участь у кастингу, щоб потрапити на уроки відомого танцюриста Яна Кеттлера. Напевно, вони б ніколи і не познайомилися, коли б не танці...


Тривалість: 01:58:22
Якість: 1080p
Відео:
кодек:
розмір кадру: 1920 х 816
бітрейт: 10,6 Мбіт/с

Аудіо # 1:
мова: українська
переклад: багатоголосий закадровий
кодек: 5.1
бітрейт: 640 кбіт/с

Аудіо # 2:
мова: польська
переклад: оригінал
кодек: 5.1
бітрейт: 640 кбіт/с

Субтитри:
мова: українська
тип: програмні (м'які)
формат: *.srt

Субтитри:
мова: англійська
тип: програмні (м'які)
формат: *.srt
MediaInfo
General
Complete name :Kochaj i tancz (2009) [Ukr, Pol Sub Ukr, Eng] 1080p [Hurtom].mkv
Format : Matroska
File size : 10.1 GiB
Duration : 1h 58mn
Overall bit rate : 12.2 Mbps
Encoded date : UTC 2015-01-16 22:16:17
Writing application : mkvmerge v5.6.0 ('Kenya Kane') built on May 27 2012 16:44:04
Writing library : libebml v1.2.3 + libmatroska v1.3.0

Video
ID : 1
Format : AVC
Format/Info : Advanced Video Codec
Format profile : [email protected]
Format settings, CABAC : Yes
Format settings, ReFrames : 3 frames
Muxing mode : Container [email protected]
Codec ID : V_MPEG4/ISO/AVC
Duration : 1h 58mn
Bit rate : 10.6 Mbps
Width : 1 920 pixels
Height : 816 pixels
Display aspect ratio : 2.35:1
Frame rate : 25.000 fps
Resolution : 8 bits
Colorimetry : 4:2:0
Scan type : Progressive
Bits/(Pixel*Frame) : 0.272
Stream size : 8.81 GiB (87%)
Writing library : core 65 r999kMod cc51047
Encoding settings : cabac=1 / ref=3 / deblock=1:0:0 / analyse=0x3:0x133 / me=umh / subme=6 / psy_rd=1.0:0.0 / mixed_ref=1 / me_range=16 / chroma_me=1 / trellis=1 / 8x8dct=1 / cqm=0 / deadzone=21,11 / chroma_qp_offset=-2 / threads=2 / thread_queue=2 / nr=0 / decimate=1 / mbaff=0 / bframes=3 / b_pyramid=1 / b_adapt=1 / b_bias=0 / direct=1 / wpredb=1 / keyint=250 / keyint_min=25 / scenecut=40(pre) / rc=crf / crf=21.0000 / qcomp=0.60 / qpmin=10 / qpmax=51 / qpstep=4 / ip_ratio=1.40 / pb_ratio=1.30 / aq=1:1.00
Language : Polish

Audio #1
ID : 2
Format : AC-3
Format/Info : Audio Coding 3
Codec ID : A_AC3
Duration : 1h 58mn
Bit rate mode : Constant
Bit rate : 640 Kbps
Channel(s) : 6 channels
Channel positions : Front: L C R, Surround: L R, LFE
Sampling rate : 48.0 KHz
Stream size : 542 MiB (5%)
Language : Ukrainian

Audio #2
ID : 3
Format : AC-3
Format/Info : Audio Coding 3
Codec ID : A_AC3
Duration : 1h 58mn
Bit rate mode : Constant
Bit rate : 640 Kbps
Channel(s) : 6 channels
Channel positions : Front: L C R, Surround: L R, LFE
Sampling rate : 48.0 KHz
Stream size : 542 MiB (5%)
Language : Polish

Text #1
ID : 4
Format : UTF-8
Codec ID : S_TEXT/UTF8
Codec ID/Info : UTF-8 Plain Text
Language : Ukrainian

Text #2
ID : 5
Format : UTF-8
Codec ID : S_TEXT/UTF8
Codec ID/Info : UTF-8 Plain Text
Скріншоти


Подяка:


Пану urij546724 за звукову доріжку.
Пану Vitall_Digitall за субтитри.
Пану Тирік за українізацію постера.


Джерело: &


 Трекер:    Зареєстрований   

Завантажити / скачати фільм українською



відео для новачків



 Зареєстрований:   2015-01-17 16:27
 Розмір:   10.06 GB 
 Оцінка фільму:   9.4/10 (Голосів: 5)
   
Інші релізи
bohdk 
Відео Гуртом - субтитрування
Відео Гуртом - субтитрування


З нами з: 23.10.09
Востаннє: 10.12.16
Повідомлень: 561

2015-01-18 14:46  
demotyvator
Може, Ханя - початкуюча журналістка?

demotyvator 
Частий відвідувач


З нами з: 24.02.12
Востаннє: 07.12.16
Повідомлень: 35

2015-01-19 20:59  
bohdk
Цитата:

Може, Ханя - початкуюча журналістка?

Дякую. Виправив.

Ваш часовий пояс: GMT + 2 Години

Нова тема   Відповісти