Завантажити та скачати торренти українською


Хай Бог розсудить їх... (2009) 1080p

Нові коментарі

Нова тема   Відповісти
Останній раз роздавалося nikolay72 (2016-12-10)
Автор Повідомлення
nikolay72 
Свій


З нами з: 19.11.09
Востаннє: 10.12.16
Повідомлень: 132

2015-01-15 17:15  
Хай Бог розсудить їх... (2009) 1080p

Хай Бог розсудить їх... (2009) 1080p


Жанр: драма, короткометражний
Країна: Україна

Кінокомпанія: Національна Кіностудія художніх фільмів ім.О. Довженка
Режисер: Євген Хворостянко
Актори: Володимир Осадчий, Станіслав Дудник, Сергій Завалій, Станіслав Голопатюк, Володимир Авдеюк, Дмитро Базай

Сюжет:
Війна - це не тільки війна. Це сміх, сльози, радість, розчарування. Це життя, у якому людина знаходиться на межі самознищення.


Тривалість: 00:22:01
Якість:
Відео:
кодек:
розмір кадру: 1920 х 1080
бітрейт: 5196 кб/с

Аудіо:
мова: українська, російська
переклад: оригінал
кодек: MP3
бітрейт: 256 кб/с

Субтитри:
мова: англійська
тип: вбудовані (жорсткі)
Звіт MediaInfo
General
Complete name : I:\HURTOM\Хай_Бог_розсудить_їх...avi
Format : AVI
Format/Info : Audio Video Interleave
File size : 860 MiB
Duration : 22mn 1s
Overall bit rate : 5 462 Kbps
Writing library : Boilsoft Joiner build 2411/release

Video
ID : 0
Format :
Codec ID :
Duration : 22mn 1s
Bit rate : 5 196 Kbps
Width : 1 920 pixels
Height : 1 080 pixels
Display aspect ratio : 16:9
Frame rate : 23.976 fps
Bits/(Pixel*Frame) : 0.105
Stream size : 818 MiB (95%)

Audio
ID : 1
Format : MPEG Audio
Format version : Version 1
Format profile : Layer 3
Mode : Joint stereo
Mode extension : MS Stereo
Codec ID : 55
Codec ID/Hint : MP3
Duration : 22mn 1s
Bit rate mode : Constant
Bit rate : 256 Kbps
Channel(s) : 2 channels
Sampling rate : 44.1 KHz
Compression mode : Lossy
Stream size : 40.3 MiB (5%)
Alignment : Split accross interleaves
Interleave, duration : 42 ms (1.00 video frame)
Interleave, preload duration : 500 ms
Writing library : LAME3.98.4
Скріншоти
Джерело:
Особиста оцінка: 0 - не дивився


 Трекер:    Зареєстрований   

Завантажити / скачати український фільм



відео для новачків



 Зареєстрований:   2015-01-15 17:15
 Розмір:   860 MB 
 Оцінка фільму:   9.9/10 (Голосів: 8)
   
Konfucius 
Управління
Управління


З нами з: 30.09.07
Востаннє: 11.12.16
Повідомлень: 4748

2015-01-17 13:52  
Бракує mediainfo.
Ваш часовий пояс: GMT + 2 Години

Нова тема   Відповісти