Завантажити та скачати торренти українською


Примарний вершник (розширена версія) / Ghost Rider (extended cut) (2007) 1080p Ukr/Eng | Sub Ukr/Eng

Нові коментарі

Нова тема   Відповісти
Автор Повідомлення
Beffis 
Модератор DVD


З нами з: 17.09.09
Востаннє: 09.12.16
Повідомлень: 339

2015-01-14 13:54  
Примарний вершник (розширена версія) / Ghost Rider (extended cut) (2007) 1080p Ukr/Eng | Sub Ukr/Eng


Жанр: фентезі, бойовик, пригодницький
Країна: США



Кіностудія / кінокомпанія: Columbia Pictures Corporation
Режисер: Марк Стівен Джонсон
Актори: Ніколас Кейдж, Єва Мендес, Пітер Фонда, Вес Бентлі, Сем Елліотт

Сюжет:
Цирковий мотоцикліст Джоні Блейз уклав угоду з Дияволом, перетворившись на Дух Помсти з черепом, огорнутий вогнем, після серії трагічних подій. Проте чисте серце Джоні зуміло перемогти демонічне начало, і Примара-вершник став благородним лінчувателем, переслідуючим нечисті душі.


Тривалість: 02:03:25
Якість:
Відео:
кодек:
розмір кадру: 1920x800
бітрейт:13 025 кб/с

Аудіо: 1
мова: українська
переклад: професійний дубльований
кодек: 5.1
бітрейт: 448 кб/с

Аудіо: 2
мова: англійська
переклад: оригінал
кодек: 5.1
бітрейт: 1509 кб/с

Переклад і озвучення виконано:


Субтитри: 1
мова: українська
тип: програмні (м'які)
формат: UTF-8 (до місць без перекладу, приблизно 5-7 хв)

Субтитри: 2
мова: англійська
тип: програмні (м'які)
формат:UTF-8
MediaInfo:

General
Unique ID : 238389180694585266859197224536947657591 (0xB358160E0AC170C0BA72BB00B98D8B77)
Complete name : D:\Гуртом\Ghost_Rider (2007) [Uk] 1080p [Hurtom] by Beffis .mkv
Format : Matroska
Format version : Version 4 / Version 2
File size : 12.9 GiB
Duration : 2h 3mn
Overall bit rate : 15.0 Mbps
Movie name : Ghost Rider (2007) - Release for HDCLUB by SbR
Encoded date : UTC 2015-01-15 10:16:19
Writing application : mkvmerge v7.5.0 ('Glass Culture') 64bit built on Jan 4 2015 16:48:44
Writing library : libebml v1.3.1 + libmatroska v1.4.2
Attachements : cover.jpg / xlog.txt
DURATION : 01:54:58.857000000
NUMBER_OF_FRAMES : 1070
NUMBER_OF_BYTES : 34039
_STATISTICS_WRITING_APP : mkvmerge v7.5.0 ('Glass Culture') 64bit built on Jan 4 2015 16:48:44
_STATISTICS_WRITING_DATE_UTC : 2015-01-15 10:16:19
_STATISTICS_TAGS : BPS DURATION NUMBER_OF_FRAMES NUMBER_OF_BYTES

Video
ID : 1
Format : AVC
Format/Info : Advanced Video Codec
Format profile : [email protected]
Format settings, CABAC : Yes
Format settings, ReFrames : 5 frames
Codec ID : V_MPEG4/ISO/AVC
Duration : 2h 3mn
Bit rate : 12.7 Mbps
Width : 1 920 pixels
Height : 800 pixels
Display aspect ratio : 2.40:1
Frame rate mode : Constant
Frame rate : 23.976 fps
Color space : YUV
Chroma subsampling : 4:2:0
Bit depth : 8 bits
Scan type : Progressive
Bits/(Pixel*Frame) : 0.346
Stream size : 11.0 GiB (85%)
Title : Release for HDCLUB
Writing library : core 140 r2377+40 929f149 tMod [[email protected]:2:0 X86_64]
Encoding settings : cabac=1 / ref=5 / deblock=1:-2:-2 / analyse=0x3:0x113 / me=umh / subme=11 / psy=1 / fade_compensate=0.00 / psy_rd=1.00:0.00 / mixed_ref=1 / me_range=48 / chroma_me=1 / trellis=2 / 8x8dct=1 / cqm=0 / deadzone=21,11 / fast_pskip=1 / chroma_qp_offset=-2 / threads=12 / lookahead_threads=2 / sliced_threads=0 / nr=0 / decimate=1 / interlaced=0 / bluray_compat=0 / constrained_intra=0 / fgo=0 / bframes=8 / b_pyramid=2 / b_adapt=2 / b_bias=0 / direct=3 / weightb=1 / open_gop=0 / weightp=2 / keyint=250 / keyint_min=23 / scenecut=40 / intra_refresh=0 / rc_lookahead=60 / rc=crf / mbtree=0 / crf=18.0000 / qcomp=0.60 / qpmin=0:0:0 / qpmax=69:69:69 / qpstep=4 / vbv_maxrate=62500 / vbv_bufsize=78125 / crf_max=0.0 / nal_hrd=none / filler=0 / ip_ratio=1.40 / pb_ratio=1.30 / aq=4:0.80 / aq-sensitivity=11.00 / aq-factor=1.00:1.00:1.00 / aq2=1:0.60 / aq2-sensitivity=9.00 / aq2-factor=1.00:1.00:1.00 / aq3=1:[0.60:0.60]:[0.60:0.60]:[0.60:0.60]:[0.60:0.60] / aq3-sensitivity=10.00 / aq3-factor=[1.00:1.00]:[1.00:1.00]:[1.00:1.00] / aq3-boundary=192:64:24
Language : English
Default : Yes
Forced : No
Color primaries : BT.709
Transfer characteristics : BT.709
Matrix coefficients : BT.709
Color range : Limited

Audio #1
ID : 2
Format : AC-3
Format/Info : Audio Coding 3
Mode extension : CM (complete main)
Format settings, Endianness : Big
Codec ID : A_AC3
Duration : 2h 3mn
Bit rate mode : Constant
Bit rate : 448 Kbps
Channel(s) : 6 channels
Channel positions : Front: L C R, Side: L R, LFE
Sampling rate : 48.0 KHz
Bit depth : 16 bits
Compression mode : Lossy
Stream size : 395 MiB (3%)
Title : Dub
Language : Ukrainian
Default : Yes
Forced : No

Audio #2
ID : 3
Format :
Format/Info : Digital Theater Systems
Mode : 16
Format settings, Endianness : Big
Codec ID : A_DTS
Duration : 2h 3mn
Bit rate mode : Constant
Bit rate : 1 509 Kbps
Channel(s) : 6 channels
Channel positions : Front: L C R, Side: L R, LFE
Sampling rate : 48.0 KHz
Bit depth : 24 bits
Compression mode : Lossy
Stream size : 1.30 GiB (10%)
Language : English
Default : No
Forced : No

Text #1
ID : 4
Format : UTF-8
Codec ID : S_TEXT/UTF8
Codec ID/Info : UTF-8 Plain Text
Title : forced
Language : Ukrainian
Default : No
Forced : No

Text #2
ID : 5
Format : UTF-8
Codec ID : S_TEXT/UTF8
Codec ID/Info : UTF-8 Plain Text
Language : English
Default : No
Forced : No



скріншоти
Інший релізи цього фільму:



Джерело: &
Особиста оцінка: 10 - без зайвих вагань рекомендую всім!


 Трекер:    Зареєстрований   

Завантажити / скачати фільм українською



відео для новачків



 Зареєстрований:   2015-01-15 12:41
 Розмір:   12.92 GB 
 Оцінка фільму:   8/10 (Голосів: 4)
   
igor911 
Відео Гуртом
Відео Гуртом


З нами з: 18.01.08
Востаннє: 09.12.16
Повідомлень: 5206

2015-01-14 17:30  
Beffis, згідно Правил
Додаток до релізів в якості HD написано:
6. Оригінальна доріжка обов'язкова у всіх релізах HD, крім 720p-mini та багатосерійних.


Додано через 2 хвилини 7 секунд:

і допиши HDClub в "Джерело"

Додано через 3 хвилини 55 секунд:

також, заміни старовинну кнопку IMDB на сучасну.

igor911 
Відео Гуртом
Відео Гуртом


З нами з: 18.01.08
Востаннє: 09.12.16
Повідомлень: 5206

2015-01-15 12:45  
Beffis, онови МедіаІнфо та зміни тип англ.сабів на "програмні (м'які)" якщо вони дійсно "UTF-8"
Ваш часовий пояс: GMT + 2 Години

Нова тема   Відповісти