Завантажити та скачати торренти українською


Усе, що тобі треба, - це любов / Кохання – це все, що тобі потрібно / Love Is All You Need / Den skaldede frisør (2012) Remux 1080p 2xUkr/Dan | Sub Dan/Eng/Swe

Нові коментарі

Нова тема   Відповісти
Автор Повідомлення
demotyvator 
Частий відвідувач


З нами з: 24.02.12
Востаннє: 07.12.16
Повідомлень: 35

2015-01-11 03:09  
Усе, що тобі треба, - це любов / Кохання – це все, що тобі потрібно / Love Is All You Need / Den skaldede frisør (2012) Remux 1080p 2xUkr/Dan | Sub Dan/Eng/Swe

Усе, що тобі треба, - це любов / Кохання – це все, що тобі потрібно / Love Is All You Need / Den skaldede frisør (2012) Remux 1080p 2xUkr/Dan | Sub Dan/Eng/Swe


Жанр: комедія, романтичний
Країна: Данія, Швеція, Італія, Франція, Німеччина



Кінокомпанія: Zentropa Productions, Zentropa International Sweden, Zentropa International Köln
Режисер: Сюзана Бієр / Susanne Bier
Актори: Тріне Дюрхольм / Trine Dyrholm, Пірс Броснан / Pierce Brosnan, Папріка Стен / Paprika Steen, Кім Бодніа / Kim Bodnia, Крістіан Шамбурґ-Мюллер / Christiane Schaumburg-Müller, Стіна Екблад / Stina Ekblad, Себастян Йессен / Sebastian Jessen, Моллі Блікст Еґелінд / Molly Blixt Egelind, Чіро Петроне / Ciro Petrone, Марко Д’Амор / Marco D'Amore

Сюжет:
Іда - перукар, в результаті лікування від раку молочної залози позбулася волосся і грудей. Вона готується до майбутнього весілля своєї дочки Астрід зі студентом Патріком. Водночас Іда дізнається, що її чоловік Ляйф зраджує їй з молодою дівчиною-бухгалтером Тільдою. На довершення син Іди йде в армію. У відчаї Іда їде до Італії на весілля, і по дорозі в аеропорт потрапляє в аварію...


Тривалість: 01:56:02
Відео:
кодек:
розмір кадру: 1920 х 1080
бітрейт: 29 959 кб/с

Аудіо # 1:
мова: українська
переклад: багатоголосий закадровий
кодек: 5.1
бітрейт: 1 510 кб/с
Інформація про озвучення

Ролі озвучили: Дмитро Завадський, Олена Узлюк, Андрій Федінчик, Ірина Грей, Андрій Альохін, Олена Яблучна та інші
Режисер дубляжу: Олександр Єфімов

Фільм перекладено і озвучено на студії ААА-sound на замовлення Каскад Україна у 2013 році
Аудіо # 2:
мова: українська
переклад: багатоголосий закадровий
кодек: 2.0
бітрейт: 192 кб/с

Аудіо # 3:
мова: данська, англійська
переклад: оригінал
кодек: 5.1
бітрейт: 1 510 кб/с

Субтитри:
мова: данська, англійська, шведська
тип: програмні (м'які)
формат: *.srt
MediaInfo
General
Complete name 00000.m2ts
Format : Matroska
File size : 28.3 GiB
Duration : 1h 56mn
Overall bit rate : 34.9 Mbps
Encoded date : UTC 2015-01-11 00:22:32
Writing application : mkvmerge v5.6.0 ('Kenya Kane') built on May 27 2012 16:44:04
Writing library : libebml v1.2.3 + libmatroska v1.3.0

Video
ID : 1
Format : AVC
Format/Info : Advanced Video Codec
Format profile : [email protected]
Format settings, CABAC : Yes
Format settings, ReFrames : 4 frames
Muxing mode : Container [email protected]
Codec ID : V_MPEG4/ISO/AVC
Duration : 1h 55mn
Width : 1 920 pixels
Height : 1 080 pixels
Display aspect ratio : 16:9
Frame rate : 23.976 fps
Resolution : 8 bits
Colorimetry : 4:2:0
Scan type : Progressive
Language : Danish
Color primaries : BT.709-5, BT.1361, IEC 61966-2-4, SMPTE RP177
Transfer characteristics : BT.709-5, BT.1361
Matrix coefficients : BT.709-5, BT.1361, IEC 61966-2-4 709, SMPTE RP177

Audio #1
ID : 2
Format :
Format/Info : Digital Theater Systems
Codec ID : A_DTS
Duration : 1h 56mn
Bit rate mode : Constant
Bit rate : 1 510 Kbps
Channel(s) : 6 channels
Channel positions : Front: L C R, Surround: L R, LFE
Sampling rate : 48.0 KHz
Resolution : 24 bits
Stream size : 1.22 GiB (4%)
Title : 5.1 1510 kbps
Language : Ukrainian

Audio #2
ID : 3
Format : AC-3
Format/Info : Audio Coding 3
Codec ID : A_AC3
Duration : 1h 56mn
Bit rate mode : Constant
Bit rate : 192 Kbps
Channel(s) : 2 channels
Channel positions : L R
Sampling rate : 48.0 KHz
Stream size : 159 MiB (1%)
Title : 2.0 192 kbps
Language : Ukrainian

Audio #3
ID : 4
Format :
Format/Info : Digital Theater Systems
Format profile : MA
Codec ID : A_DTS
Duration : 1h 56mn
Bit rate mode : Variable
Channel(s) : 6 channels
Channel positions : Front: L C R, Surround: L R, LFE
Sampling rate : 48.0 KHz
Resolution : 24 bits
Language : Danish

Text #1
ID : 5
Format : UTF-8
Codec ID : S_TEXT/UTF8
Codec ID/Info : UTF-8 Plain Text
Language : Danish

Text #2
ID : 6
Format : UTF-8
Codec ID : S_TEXT/UTF8
Codec ID/Info : UTF-8 Plain Text

Text #3
ID : 7
Format : UTF-8
Codec ID : S_TEXT/UTF8
Codec ID/Info : UTF-8 Plain Text
Language : Swedish
Скріншоти



Джерело: та
Особиста оцінка: 10 - без зайвих вагань рекомендую всім!

Велика подяка за надану українську доріжку пану karvai0


Золотий реліз (завантажене не впливає на рейтинг)
 Трекер:    Зареєстрований   

Завантажити / скачати фільм українською



відео для новачків



 Зареєстрований:   2015-01-11 03:09
 Розмір:   28.27 GB 
 Оцінка фільму:   -/10 (Голосів: 0)
   
Ваш часовий пояс: GMT + 2 Години

Нова тема   Відповісти