Завантажити та скачати торренти українською


Нема куди тікати / Nowhere to Run (1993) 720p Ukr/Eng | Sub Eng

Нові коментарі

Нова тема   Відповісти
Автор Повідомлення
Anonymous 







2015-01-09 19:40  
Нема куди тікати / Nowhere to Run (1993) 720p Ukr/Eng | Sub Eng



Українізований постер



Жанр: бойовик, драма, мелодрама
Країна: США



Кінокомпанія: Columbia Pictures Corporation
Режисер: Роберт Гармон / Robert Harmon
Актори: Жан-Клод Ван Дамм / Jean-Claude Van Damme, Розанна Аркетт, Кіран Калкін, Тед Лівайн, Тіффані Тобмен, Едвард Блетчфорд, Ентоні Старк, Джосс Екленд, Аллан Ґреф, Леонард Термо, Роберт Апіза, Джофрі Сі Браун, Тоні Брубейкер, Рон Говард Джордж, Войо Ґоріч, Джек Лукареллі, Пітер Малота, Френк Орсатті, Менні Перрі, Томас Розалес-мол., Рон Стейн, Свен-Оле Торсен, Джек Вербуа, Чак Зіто, Джеймс Ґрін, Стівен Чемберс, Стівен Бріджвотер, Крісті Боткін, Луана Андерс, Кевін Пейдж, Елбі Селзнік, Енді Ґілл, Джин ЛеБелл, Джефф Ремзі, Ренделл Денніс Віднер, Ґевін Ґленнон, Джон Рубінов, Стенлі Вайт, Джозеф Менза, Джон Фінн, Джон Керрі, Тоні Еппер та інші

Сюжет:
Такий до болю знайомий та сучасний для українців сюжет - барига-забудовник за допомогою продажних "мусора", судді та "тітушок" намагається "віджати" у молодої вдови з двома дітьми її земельну ділянку з будинком та фермою. На її захист стає Сем (Ван Дамм), що переховується після втечі з в'язниці на околицях ферми. На фоні спільної боротьби у молодиці та Ван Дамма закручується пристрасний роман...


Рейтинг MPAA: R - особам до 17 років обов'язкова присутність батьків або дорослого опікуна
Вікова категорія: 16+

Тривалість: 01:34:19
Якість: 720p
Відео:
кодек:
розмір кадру: 1280 х 694
бітрейт: 11,7 Мбіт/с [crf=17]

Аудіо # 1:
мова: українська
переклад: багатоголосий закадровий
ролі озвучили: Олег Стальчук (Жан-Клод Ван Дамм), Володимир Терещук, Анатолій Зіновенко та Людмила Чиншева
кодек: 5.1
бітрейт: 384 кбіт/с

Аудіо # 2:
мова: англійська
переклад: оригінал
кодек: 5.1
бітрейт: 640 кбіт/с

Субтитри:
мова: англійська
тип: програмні (м'які)
формат: *.srt

Збережено оригінальні розділи, як на Blu-ray.
MediaInfo
Код:
General
Unique ID                                : 208271863158867649814651226456369195075 (0x9CAFB3A80EA080019C35EC85D6D0E843)
Complete name                            : Nowhere to Run (1993) [Ukr,Eng sub.Eng] 720p [Hurtom & HDClub].mkv
Format                                   : Matroska
Format version                           : Version 4 / Version 2
File size                                : 8.56 GiB
Duration                                 : 1h 34mn
Overall bit rate                         : 13.0 Mbps
Movie name                               : Нема куди тікати / Nowhere to Run (1993) [Ukr,Eng sub.Eng] 720p [Hurtom & HDClub]
Encoded date                             : UTC 2015-01-02 15:25:27
Writing application                      : mkvmerge v7.4.0 ('Circles') 64bit built on Dec 12 2014 12:19:56
Writing library                          : libebml v1.3.0 + libmatroska v1.4.1
DURATION                                 : 01:34:19.648000000
NUMBER_OF_FRAMES                         : 176864
NUMBER_OF_BYTES                          : 271663104
_STATISTICS_WRITING_APP                  : mkvmerge v7.4.0 ('Circles') 64bit built on Dec 12 2014 12:19:56
_STATISTICS_WRITING_DATE_UTC             : 2015-01-02 15:25:27
_STATISTICS_TAGS                         : BPS DURATION NUMBER_OF_FRAMES NUMBER_OF_BYTES

Video
ID                                       : 1
Format                                   : AVC
Format/Info                              : Advanced Video Codec
Format profile                           : [email protected]
Format settings, CABAC                   : Yes
Format settings, ReFrames                : 8 frames
Codec ID                                 : V_MPEG4/ISO/AVC
Duration                                 : 1h 34mn
Bit rate                                 : 11.7 Mbps
Width                                    : 1 280 pixels
Height                                   : 694 pixels
Display aspect ratio                     : 1.85:1
Frame rate mode                          : Constant
Frame rate                               : 23.976 fps
Color space                              : YUV
Chroma subsampling                       : 4:2:0
Bit depth                                : 8 bits
Scan type                                : Progressive
Bits/(Pixel*Frame)                       : 0.550
Stream size                              : 7.71 GiB (90%)
Title                                    : Нема куди тікати / Nowhere to Run / Некуда бежать (1993) 720p [DEOSS77]
Writing library                          : core 115 r1995 c1e60b9
Encoding settings                        : cabac=1 / ref=8 / deblock=1:-3:-3 / analyse=0x3:0x133 / me=umh / subme=10 / psy=1 / psy_rd=1.00:0.00 / mixed_ref=1 / me_range=64 / chroma_me=1 / trellis=2 / 8x8dct=1 / cqm=0 / deadzone=21,11 / fast_pskip=0 / chroma_qp_offset=-2 / threads=9 / sliced_threads=0 / nr=0 / decimate=0 / interlaced=0 / bluray_compat=0 / constrained_intra=0 / bframes=9 / b_pyramid=2 / b_adapt=2 / b_bias=0 / direct=3 / weightb=1 / open_gop=0 / weightp=2 / keyint=250 / keyint_min=23 / scenecut=40 / intra_refresh=0 / rc_lookahead=40 / rc=crf / mbtree=0 / crf=17.0 / qcomp=0.60 / qpmin=0 / qpmax=69 / qpstep=4 / vbv_maxrate=50000 / vbv_bufsize=62500 / crf_max=0.0 / nal_hrd=none / ip_ratio=1.40 / pb_ratio=1.30 / aq=1:0.80
Language                                 : English
Default                                  : Yes
Forced                                   : No
DURATION                                 : 01:34:19.654000000
NUMBER_OF_FRAMES                         : 135696
NUMBER_OF_BYTES                          : 8461383249
_STATISTICS_WRITING_APP                  : mkvmerge v7.4.0 ('Circles') 64bit built on Dec 12 2014 12:19:56
_STATISTICS_WRITING_DATE_UTC             : 2015-01-02 15:25:27
_STATISTICS_TAGS                         : BPS DURATION NUMBER_OF_FRAMES NUMBER_OF_BYTES

Audio #1
ID                                       : 2
Format                                   : AC-3
Format/Info                              : Audio Coding 3
Mode extension                           : CM (complete main)
Format settings, Endianness              : Big
Codec ID                                 : A_AC3
Duration                                 : 1h 34mn
Bit rate mode                            : Constant
Bit rate                                 : 384 Kbps
Channel(s)                               : 6 channels
Channel positions                        : Front: L C R, Side: L R, LFE
Sampling rate                            : 48.0 KHz
Bit depth                                : 16 bits
Compression mode                         : Lossy
Stream size                              : 259 MiB (3%)
Title                                    : MVO [Ukraina] 5.1 384 kbps [Hurtom-yuranako]
Language                                 : Ukrainian
Default                                  : Yes
Forced                                   : No

Audio #2
ID                                       : 3
Format                                   : AC-3
Format/Info                              : Audio Coding 3
Mode extension                           : CM (complete main)
Format settings, Endianness              : Big
Codec ID                                 : A_AC3
Duration                                 : 1h 34mn
Bit rate mode                            : Constant
Bit rate                                 : 640 Kbps
Channel(s)                               : 2 channels
Channel positions                        : Front: L R
Sampling rate                            : 48.0 KHz
Bit depth                                : 16 bits
Compression mode                         : Lossy
Stream size                              : 432 MiB (5%)
Language                                 : English
Default                                  : No
Forced                                   : No

Text
ID                                       : 4
Format                                   : UTF-8
Codec ID                                 : S_TEXT/UTF8
Codec ID/Info                            : UTF-8 Plain Text
Language                                 : English
Default                                  : No
Forced                                   : No

Menu
00:00:00.000                             : en:Chapter 01
00:06:16.539                             : en:Chapter 02
00:11:23.138                             : en:Chapter 03
00:20:33.855                             : en:Chapter 04
00:26:13.527                             : en:Chapter 05
00:31:30.886                             : en:Chapter 06
00:38:51.661                             : en:Chapter 07
00:46:41.172                             : en:Chapter 08
00:48:45.922                             : en:Chapter 09
00:54:19.338                             : en:Chapter 10
01:00:10.148                             : en:Chapter 11
01:06:52.046                             : en:Chapter 12
01:12:14.997                             : en:Chapter 13
01:19:34.185                             : en:Chapter 14
01:24:00.452                             : en:Chapter 15
01:27:21.734                             : en:Chapter 16
01:34:19.403                             : en:Chapter 17




Джерела та подяки: &
ріп відео, оригінальні звук та субтитри - DEOSS77 (HDClub); українська доріжка - yuranako - зведення, olgaya - запис з ТБ, JACKUS - зведення початкової доріжки; українізований постер - Ermolenko; фільмографії акторів та інформація про озвучення - Віктор (всі - Гуртом).


ЗАЛИШАЙТЕСЬ ЯКОМОГА ДОВШЕ НА РОЗДАЧІ!

СКАЧАВ САМ - ДАЙ СКАЧАТИ ІНШИМ


Срібний реліз (на рейтинг впливає 50% завантаженого)
 Трекер:    Зареєстрований   

Завантажити / скачати фільм українською



відео для новачків



 Зареєстрований:   2015-01-09 20:46
 Розмір:   8.56 GB 
 Оцінка фільму:   1.8/10 (Голосів: 11)
   
Інші релізи
bot 
робот


З нами з: 30.09.07
Востаннє: 26.05.05
Повідомлень: 16046

2015-01-09 20:45  
Тему перенесено з Анонси релізів до форуму Фільми в HD


igor911

Ваш часовий пояс: GMT + 2 Години

Нова тема   Відповісти