Завантажити та скачати торренти українською


Подвійний прорахунок / Подвійне звинувачення / Double Jeopardy (1999) 720p 2xUkr/Eng | Sub Eng

Нові коментарі

Нова тема   Відповісти
Автор Повідомлення
Anonymous 







2015-01-09 17:52  
Подвійний прорахунок / Подвійне звинувачення / Double Jeopardy (1999) 720p 2xUkr/Eng | Sub Eng



Жанр: трилер, детектив, кримінальний
Країна: США, Німеччина, Канада



Кінокомпанія: Paramount Pictures, MFP Munich Film Partners GmbH & Company I. Produktions KG, Province of British Columbia Production Services Tax Credit
Режисер: Брюс Бересфорд / Bruce Beresford
Актори: Ешлі Джадд / Ashley Judd, Томмі Лі Джонс / Tommy Lee Jones, Брюс Ґрінвуд / Bruce Greenwood, Аннабет Ґіш / Annabeth Gish, Бенджамін Вейр / Benjamin Weir, Джей Бразо / Jay Brazeau, Джон МакЛарен / John Maclaren, Ед Еванко / Ed Evanko, Брюс Кемпбелл / Bruce Campbell, Бреннан Елліотт / Brennan Elliott та інші

Сюжет:
Молодій жінці довелося відбувати термін за злочин, до якого вона не мала жодного стосунку. Більше того, з'ясувалося, що її підставив власний чоловік, який насправді був живий-здоровий і чудово себе почував. Проте він забув узяти до уваги, на що здатна Ліббі, коли її підступно зраджують. Термін закінчився, і вона відправляється відновлювати справедливість. А слідом за Ліббі відправляється офіцер з нагляду за випущеними на волю в'язнями...


Рейтинг MPAA: R - особам до 17 років обов'язкова присутність батьків або дорослого опікуна
Вікова категорія: 16+

Тривалість: 01:45:16
Якість: 720p
Відео:
кодек:
розмір кадру: 1280 х 534
бітрейт: 3943 кбіт/с

Аудіо # 1:
мова: українська
переклад: багатоголосий закадровий
кодек: 2.0
бітрейт: 192 кбіт/с

Аудіо # 2:
мова: українська
переклад: багатоголосий закадровий
кодек: 2.0
бітрейт: 192 кбіт/с

Аудіо # 3:
мова: англійська
переклад: оригінал
кодек: 5.1
бітрейт: 448 кбіт/с

Субтитри:
мова: англійська
тип: програмні (м'які)
формат: *.srt

Збережено оригінальні розділи
MediaInfo
Код:
General
Unique ID                                : 196000281525719120736727276563129903276 (0x937447F82092374B9B56021F205328AC)
Complete name                            : Double Jeopardy (1999) [2xUkr,Eng sub.Eng] 720p [Hurtom & HDClub].mkv
Format                                   : Matroska
Format version                           : Version 4 / Version 2
File size                                : 3.58 GiB
Duration                                 : 1h 45mn
Overall bit rate                         : 4 872 Kbps
Movie name                               : Подвійний прорахунок / Подвійне звинувачення / Double Jeopardy (1999) [2xUkr,Eng sub.Eng] 720p [Hurtom & HDClub]
Encoded date                             : UTC 2015-01-02 14:27:51
Writing application                      : mkvmerge v7.4.0 ('Circles') 64bit built on Dec 12 2014 12:19:56
Writing library                          : libebml v1.3.0 + libmatroska v1.4.1
DURATION                                 : 01:45:11.424000000
NUMBER_OF_FRAMES                         : 197232
NUMBER_OF_BYTES                          : 151474176
_STATISTICS_WRITING_APP                  : mkvmerge v7.4.0 ('Circles') 64bit built on Dec 12 2014 12:19:56
_STATISTICS_WRITING_DATE_UTC             : 2015-01-02 14:27:51
_STATISTICS_TAGS                         : BPS DURATION NUMBER_OF_FRAMES NUMBER_OF_BYTES

Video
ID                                       : 1
Format                                   : AVC
Format/Info                              : Advanced Video Codec
Format profile                           : [email protected]
Format settings, CABAC                   : No
Format settings, ReFrames                : 2 frames
Codec ID                                 : V_MPEG4/ISO/AVC
Duration                                 : 1h 45mn
Bit rate                                 : 3 943 Kbps
Width                                    : 1 280 pixels
Height                                   : 534 pixels
Display aspect ratio                     : 2.40:1
Frame rate mode                          : Constant
Frame rate                               : 23.976 fps
Color space                              : YUV
Chroma subsampling                       : 4:2:0
Bit depth                                : 8 bits
Scan type                                : Progressive
Bits/(Pixel*Frame)                       : 0.241
Stream size                              : 2.90 GiB (81%)
Title                                    : Подвійний прорахунок / Подвійне звинувачення / Double Jeopardy / Двойной просчет (1999) 720p [HDClub]
Language                                 : English
Default                                  : Yes
Forced                                   : No
Color primaries                          : BT.709
Transfer characteristics                 : BT.709
Matrix coefficients                      : BT.709

Audio #1
ID                                       : 2
Format                                   : AC-3
Format/Info                              : Audio Coding 3
Mode extension                           : CM (complete main)
Format settings, Endianness              : Big
Codec ID                                 : A_AC3
Duration                                 : 1h 45mn
Bit rate mode                            : Constant
Bit rate                                 : 192 Kbps
Channel(s)                               : 2 channels
Channel positions                        : Front: L R
Sampling rate                            : 48.0 KHz
Bit depth                                : 16 bits
Compression mode                         : Lossy
Stream size                              : 145 MiB (4%)
Title                                    : MVO [Inter] 2.0 192 kbps [Hurtom-omm,РОМЕО]
Language                                 : Ukrainian
Default                                  : Yes
Forced                                   : No

Audio #2
ID                                       : 3
Format                                   : AC-3
Format/Info                              : Audio Coding 3
Mode extension                           : CM (complete main)
Format settings, Endianness              : Big
Codec ID                                 : A_AC3
Duration                                 : 1h 45mn
Bit rate mode                            : Constant
Bit rate                                 : 192 Kbps
Channel(s)                               : 2 channels
Channel positions                        : Front: L R
Sampling rate                            : 48.0 KHz
Bit depth                                : 16 bits
Compression mode                         : Lossy
Stream size                              : 145 MiB (4%)
Title                                    : MVO [Novyj] 2.0 192 kbps [Hurtom-omm,JACKUS,dvorsky,olgaya]
Language                                 : Ukrainian
Default                                  : No
Forced                                   : No

Audio #3
ID                                       : 4
Format                                   : AC-3
Format/Info                              : Audio Coding 3
Mode extension                           : CM (complete main)
Format settings, Endianness              : Big
Codec ID                                 : A_AC3
Duration                                 : 1h 45mn
Bit rate mode                            : Constant
Bit rate                                 : 448 Kbps
Channel(s)                               : 6 channels
Channel positions                        : Front: L C R, Side: L R, LFE
Sampling rate                            : 48.0 KHz
Bit depth                                : 16 bits
Compression mode                         : Lossy
Stream size                              : 337 MiB (9%)
Title                                    : Original 5.1 448 kbps
Language                                 : English
Default                                  : No
Forced                                   : No

Text
ID                                       : 5
Format                                   : UTF-8
Codec ID                                 : S_TEXT/UTF8
Codec ID/Info                            : UTF-8 Plain Text
Language                                 : English
Default                                  : No
Forced                                   : No

Menu
00:00:00.000                             : en:The Good Life
00:06:32.000                             : en:The Morning Star
00:13:26.000                             : en:Testimony
00:20:50.000                             : en:Using Her Head
00:27:36.000                             : en:A Christmas Present
00:32:31.000                             : en:Conditional Parole
00:40:25.000                             : en:School Records
00:46:15.000                             : en:"Don't Go Anywhere."
00:52:39.000                             : en:Angela Ryder
00:58:46.000                             : en:Art Search
01:06:20.000                             : en:Bachelor Auction
01:15:23.000                             : en:The Red Umbrella
01:21:17.000                             : en:Tourist Trap
01:29:09.000                             : en:Number 3
01:36:22.000                             : en:Matty
01:40:32.000                             : en:End Credits




Джерела та подяки: & &
відео - Dreamcatcher (HDClub), оригінальні звук та субтитри - PUNCHLINE79797 (рутрекер); українська доріжка - omm - зведення, РОМЕО, olgaya, dvorsky - запис з ТБ, JACKUS - зведення під DVD (всі - Гуртом).


ЗАЛИШАЙТЕСЬ ЯКОМОГА ДОВШЕ НА РОЗДАЧІ!

СКАЧАВ САМ - ДАЙ СКАЧАТИ ІНШИМ


Срібний реліз (на рейтинг впливає 50% завантаженого)
 Трекер:    Зареєстрований   

Завантажити / скачати фільм українською



відео для новачків



 Зареєстрований:   2015-01-09 17:52
 Розмір:   3.58 GB 
 Оцінка фільму:   4.8/10 (Голосів: 18)
   
Ваш часовий пояс: GMT + 2 Години

Нова тема   Відповісти