Завантажити та скачати торренти українською


Танці в "Блакитній ігуані" / Dancing at the Blue Iguana (2000) 720p Ukr/Eng | Sub Eng

Нові коментарі

Нова тема   Відповісти
Автор Повідомлення
Anonymous 







2015-01-09 15:10  
Танці в "Блакитній ігуані" / Dancing at the Blue Iguana (2000) 720p Ukr/Eng | Sub Eng



Альтернативний постер



Жанр: драма, детектив
Країна: США



Кінокомпанія: Moonstone Entertainment, Bergman Lustig Productions, Dragon Pictures, Gallery Motion Pictures, Keystone Studios
Режисер: Майкл Редфорд / Michael Radford
Актори: Шарлотта Айян / Charlotte Ayanna, Крістін Бауер / Kristin Bauer, В. Ерл Браун / W. Earl Brown, Деріл Ханна / Daryl Hannah, Кріс Хоган / Chris Hogan, Шейла Келлі / Sheila Kelley, Еліас Котеас / Elias Koteas, Владімір Машков / Vladimir Mashkov та інші

Сюжет:
Закулісні будні п'яти стриптизерок американського клубу одноманітними не назвеш. Сексапільні спокусниці під час нічної зміни, вдень вони живуть звичайними турботами, мріючи вибратися на "світлий шлях", щоб не зкурвитись.

У кожної з них свій шанс: Жасмін пише вірші, в Енжел сильний материнський інстинкт, Джо раптово дізнається, що вагітна... А поруч, в мотелі, зачаївся кілер, який закохався у одну з красунь...


Рейтинг MPAA: R - особам до 17 років обов'язкова присутність батьків або дорослого опікуна
Вікова категорія: 16+

Тривалість: 02:03:55
Якість: 720p
Відео:
кодек:
розмір кадру: 1280x716
бітрейт: 4016 кбіт/с

Аудіо # 1:
мова: українська
переклад: двоголосий закадровий
кодек: 5.1
бітрейт: 384 кб/с
примітка: ця озвучка також транслювалась на каналах "Бабай ТБ" та "2+2"

Аудіо # 2:
мова: англійська
переклад: оригінал
кодек: 5.1
бітрейт: 448 кб/с

Субтитри:
мова: англійська
тип: програмні (м'які)
формат: *.srt

Збережено оригінальні розділи
MediaInfo
Код:
General
Unique ID                                : 251498075692402300391256198117912714118 (0xBD34C47A6ECD0DFBBFFF16A8F18B9B86)
Complete name                            : Dancing at the Blue Iguana (2000) [Ukr,Eng sub.Eng] 720p [Hurtom & HDClub].mkv
Format                                   : Matroska
Format version                           : Version 4 / Version 2
File size                                : 4.28 GiB
Duration                                 : 2h 3mn
Overall bit rate                         : 4 946 Kbps
Movie name                               : Танці в "Блакитній ігуані" / Dancing at the Blue Iguana (2000) [Ukr,Eng sub.Eng] 720p [Hurtom & HDClub]
Encoded date                             : UTC 2015-01-06 15:05:39
Writing application                      : mkvmerge v7.5.0 ('Glass Culture') 64bit built on Jan  4 2015 16:48:44
Writing library                          : libebml v1.3.1 + libmatroska v1.4.2
DURATION                                 : 02:02:41.920000000
NUMBER_OF_FRAMES                         : 2123
NUMBER_OF_BYTES                          : 57705
_STATISTICS_WRITING_APP                  : mkvmerge v7.5.0 ('Glass Culture') 64bit built on Jan  4 2015 16:48:44
_STATISTICS_WRITING_DATE_UTC             : 2015-01-06 15:05:39
_STATISTICS_TAGS                         : BPS DURATION NUMBER_OF_FRAMES NUMBER_OF_BYTES

Video
ID                                       : 1
Format                                   : AVC
Format/Info                              : Advanced Video Codec
Format profile                           : [email protected]
Format settings, CABAC                   : No
Format settings, ReFrames                : 2 frames
Codec ID                                 : V_MPEG4/ISO/AVC
Duration                                 : 2h 3mn
Bit rate                                 : 4 016 Kbps
Width                                    : 1 280 pixels
Height                                   : 716 pixels
Display aspect ratio                     : 16:9
Frame rate mode                          : Constant
Frame rate                               : 23.976 fps
Color space                              : YUV
Chroma subsampling                       : 4:2:0
Bit depth                                : 8 bits
Scan type                                : Progressive
Bits/(Pixel*Frame)                       : 0.183
Stream size                              : 3.48 GiB (81%)
Title                                    : Танці в "Блакитній ігуані" / Dancing at the Blue Iguana / Танцы в «Голубой игуане» (2000) 720p [HDClub]
Language                                 : English
Default                                  : Yes
Forced                                   : No
Color primaries                          : BT.709
Transfer characteristics                 : BT.709
Matrix coefficients                      : BT.709

Audio #1
ID                                       : 2
Format                                   : AC-3
Format/Info                              : Audio Coding 3
Mode extension                           : CM (complete main)
Format settings, Endianness              : Big
Codec ID                                 : A_AC3
Duration                                 : 2h 3mn
Bit rate mode                            : Constant
Bit rate                                 : 384 Kbps
Channel(s)                               : 6 channels
Channel positions                        : Front: L C R, Side: L R, LFE
Sampling rate                            : 48.0 KHz
Bit depth                                : 16 bits
Compression mode                         : Lossy
Stream size                              : 340 MiB (8%)
Title                                    : DVO [Kino] 5.1 384 kbps [Hurtom-urij546724,SweetN,dvorsky]
Language                                 : Ukrainian
Default                                  : Yes
Forced                                   : No

Audio #2
ID                                       : 3
Format                                   : AC-3
Format/Info                              : Audio Coding 3
Mode extension                           : CM (complete main)
Format settings, Endianness              : Big
Codec ID                                 : A_AC3
Duration                                 : 2h 3mn
Bit rate mode                            : Constant
Bit rate                                 : 448 Kbps
Channel(s)                               : 6 channels
Channel positions                        : Front: L C R, Side: L R, LFE
Sampling rate                            : 48.0 KHz
Bit depth                                : 16 bits
Compression mode                         : Lossy
Stream size                              : 397 MiB (9%)
Title                                    : Original 5.1 448 kbps
Language                                 : English
Default                                  : No
Forced                                   : No

Text
ID                                       : 4
Format                                   : UTF-8
Codec ID                                 : S_TEXT/UTF8
Codec ID/Info                            : UTF-8 Plain Text
Title                                    : SDH
Language                                 : English
Default                                  : No
Forced                                   : No

Menu
00:00:00.000                             : en:Chapter 1
00:07:54.000                             : en:Chapter 2
00:16:12.000                             : en:Chapter 3
00:24:23.000                             : en:Chapter 4
00:33:49.000                             : en:Chapter 5
00:41:20.000                             : en:Chapter 6
00:51:47.000                             : en:Chapter 7
01:01:07.000                             : en:Chapter 8
01:10:44.000                             : en:Chapter 9
01:21:32.000                             : en:Chapter 10
01:30:03.000                             : en:Chapter 11
01:39:53.000                             : en:Chapter 12
01:47:47.000                             : en:Chapter 13
01:57:38.000                             : en:Chapter 14




Джерела та подяки: &
ріп відео, оригінальні звук та субтитри - shuriken331 (HDClub); українська доріжка - urij546724 - зведення, SweetN, dvorsky - запис з ТБ (всі - Гуртом).


ЗАЛИШАЙТЕСЬ ЯКОМОГА ДОВШЕ НА РОЗДАЧІ!

СКАЧАВ САМ - ДАЙ СКАЧАТИ ІНШИМ


Срібний реліз (на рейтинг впливає 50% завантаженого)
 Трекер:    Зареєстрований   

Завантажити / скачати фільм українською



відео для новачків



 Зареєстрований:   2015-01-09 16:48
 Розмір:   4.28 GB 
 Оцінка фільму:   3.1/10 (Голосів: 13)
   
Інші релізи
bot 
робот


З нами з: 30.09.07
Востаннє: 26.05.05
Повідомлень: 16030

2015-01-09 16:47  
Тему перенесено з Анонси релізів до форуму Фільми в HD


igor911

Ваш часовий пояс: GMT + 2 Години

Нова тема   Відповісти