Завантажити та скачати торренти українською


Нічні яструби / Nighthawks (1981) 720p 2хUkr/Eng | Sub Eng

Нові коментарі

Нова тема   Відповісти
Автор Повідомлення
Anonymous 







2015-01-09 11:57  
Нічні яструби / Nighthawks (1981) 720p 2хUkr/Eng | Sub Eng



Жанр: бойовик, трилер, кримінальний
Країна: США



Кінокомпанія: Universal Pictures, Herb Nanas Productions, Layton Productions, Martin Poll Productions, The Production Company
Режисер: Брюс Мелмат / Bruce Malmuth, Гері Нельсон / Gary Nelson
Актори: Сильвестер Сталлоне / Sylvester Stallone, Рутґер Гавер / Rutger Hauer, Біллі Ді Вільямс / Billy Dee Williams, Ліндсі Вагнер / Lindsay Wagner, Найджел Давенпорт / Nigel Davenport, Персіс Хамбатта / Persis Khambatta, Джо Спінелл / Joe Spinell та інші

Сюжет:
Відчайдушний сержант поліції Дік Де Сільва звик ловити злочинців в екстремальній ситуації "на живця", в ролі якого завжди виступав він сам. Але "адреналіновій" службі приходить кінець, після того, як героя переводять у новостворений антитерористичний підрозділ.

Однак нудьгувати на новій посаді Де Сільві не доведеться. У його місті з'явився відомий терорист - безжальний вбивця Хеймар Райнхардт, відомий за прізвиськом Вульфгар. Вульфгар захоплює заручників прямо в повітрі - у вагончику фунікулера, що прямує на Рузвельт-Айленд. Глядач стане свідком битви найсміливішого копа та найжорстокішого терориста!


Рейтинг MPAA: R - особам до 17 років обов'язкова присутність батьків або дорослого опікуна
Вікова категорія: 16+

Тривалість: 01:35:08
Якість: 720p
Відео:
кодек:
розмір кадру: 1280 х 688
бітрейт: 5429 кбіт/с [crf=18]
примітка: за джерело ріпу взято HDTV через кращу якість проти Blu-ray диска
Порівняння HDTV та Blu-ray

HDTV vs BluRay





Аудіо # 1:
мова: українська
переклад: багатоголосий закадровий
ролі озвучили: Анатолій Зіновенко, Олесь Гімбаржевський, Ярослав Чорненький та Наталя Романько-Кисельова?
кодек: 2.0
бітрейт: 192 кбіт/с

Аудіо # 2:
мова: українська
переклад: двоголосий закадровий
кодек: 2.0
бітрейт: 192 кбіт/с

Аудіо # 3:
мова: англійська
переклад: оригінал
кодек: 2.0
бітрейт: 1510 кбіт/с

Субтитри:
мова: англійська
тип: пререндерні
формат: PGS
MediaInfo та x264log
Код:
General
Unique ID                                : 185987559045862018421596309185744280088 (0x8BEBE6A3052E8C3C997138E01D4B1A18)
Complete name                            : Nighthawks (1981) [2xUkr,Eng sub.Eng] 720p [Hurtom].mkv
Format                                   : Matroska
Format version                           : Version 4 / Version 2
File size                                : 4.96 GiB
Duration                                 : 1h 35mn
Overall bit rate                         : 7 472 Kbps
Movie name                               : Нічні яструби / Nighthawks (1981) [2xUkr,Eng sub.Eng] 720p [Hurtom]
Encoded date                             : UTC 2015-01-06 14:33:32
Writing application                      : mkvmerge v7.5.0 ('Glass Culture') 64bit built on Jan  4 2015 16:48:44
Writing library                          : libebml v1.3.1 + libmatroska v1.4.2
DURATION                                 : 01:32:11.240000000
NUMBER_OF_FRAMES                         : 1504
NUMBER_OF_BYTES                          : 12955240
_STATISTICS_WRITING_APP                  : mkvmerge v7.5.0 ('Glass Culture') 64bit built on Jan  4 2015 16:48:44
_STATISTICS_WRITING_DATE_UTC             : 2015-01-06 14:33:32
_STATISTICS_TAGS                         : BPS DURATION NUMBER_OF_FRAMES NUMBER_OF_BYTES

Video
ID                                       : 1
Format                                   : AVC
Format/Info                              : Advanced Video Codec
Format profile                           : [email protected]
Format settings, CABAC                   : Yes
Format settings, ReFrames                : 9 frames
Codec ID                                 : V_MPEG4/ISO/AVC
Duration                                 : 1h 35mn
Bit rate                                 : 5 429 Kbps
Width                                    : 1 280 pixels
Height                                   : 688 pixels
Display aspect ratio                     : 1.85:1
Frame rate mode                          : Constant
Frame rate                               : 25.000 fps
Color space                              : YUV
Chroma subsampling                       : 4:2:0
Bit depth                                : 8 bits
Scan type                                : Progressive
Bits/(Pixel*Frame)                       : 0.247
Stream size                              : 3.61 GiB (73%)
Title                                    : Нічні яструби / Nighthawks / Ночные ястребы (1981) 720p [rutracker-Топтыга]
Writing library                          : core 124 r2197 69a0443
Encoding settings                        : cabac=1 / ref=9 / deblock=1:-3:-3 / analyse=0x3:0x113 / me=tesa / subme=11 / psy=1 / psy_rd=1.00:0.00 / mixed_ref=1 / me_range=32 / chroma_me=1 / trellis=2 / 8x8dct=1 / cqm=0 / deadzone=21,11 / fast_pskip=0 / chroma_qp_offset=-6 / threads=12 / sliced_threads=0 / nr=0 / decimate=1 / interlaced=0 / bluray_compat=0 / constrained_intra=0 / bframes=10 / b_pyramid=2 / b_adapt=2 / b_bias=0 / direct=3 / weightb=1 / open_gop=0 / weightp=2 / keyint=250 / keyint_min=23 / scenecut=40 / intra_refresh=0 / rc_lookahead=40 / rc=crf / mbtree=1 / crf=18.0 / qcomp=0.60 / qpmin=0 / qpmax=69 / qpstep=4 / vbv_maxrate=50000 / vbv_bufsize=62500 / crf_max=0.0 / nal_hrd=none / ip_ratio=1.40 / aq=1:1.00
Language                                 : English
Default                                  : Yes
Forced                                   : No
DURATION                                 : 01:35:07.600000000
NUMBER_OF_FRAMES                         : 142690
NUMBER_OF_BYTES                          : 3964859017
_STATISTICS_WRITING_APP                  : mkvmerge v7.5.0 ('Glass Culture') 64bit built on Jan  4 2015 16:48:44
_STATISTICS_WRITING_DATE_UTC             : 2015-01-06 14:33:32
_STATISTICS_TAGS                         : BPS DURATION NUMBER_OF_FRAMES NUMBER_OF_BYTES

Audio #1
ID                                       : 2
Format                                   : AC-3
Format/Info                              : Audio Coding 3
Mode extension                           : CM (complete main)
Format settings, Endianness              : Big
Codec ID                                 : A_AC3
Duration                                 : 1h 35mn
Bit rate mode                            : Constant
Bit rate                                 : 192 Kbps
Channel(s)                               : 2 channels
Channel positions                        : Front: L R
Sampling rate                            : 48.0 KHz
Bit depth                                : 16 bits
Compression mode                         : Lossy
Stream size                              : 131 MiB (3%)
Title                                    : MVO [Ukraina] 2.0 192 kbps [Hurtom-NemoInFire]
Language                                 : Ukrainian
Default                                  : Yes
Forced                                   : No

Audio #2
ID                                       : 3
Format                                   : AC-3
Format/Info                              : Audio Coding 3
Mode extension                           : CM (complete main)
Format settings, Endianness              : Big
Codec ID                                 : A_AC3
Duration                                 : 1h 35mn
Bit rate mode                            : Constant
Bit rate                                 : 192 Kbps
Channel(s)                               : 2 channels
Channel positions                        : Front: L R
Sampling rate                            : 48.0 KHz
Bit depth                                : 16 bits
Compression mode                         : Lossy
Stream size                              : 131 MiB (3%)
Title                                    : DVO [ICTV, VHS] 2.0 192 kbps [Hurtom-NemoInFire]
Language                                 : Ukrainian
Default                                  : No
Forced                                   : No

Audio #3
ID                                       : 4
Format                                   :
Format/Info                              : Digital Theater Systems
Mode                                     : 16
Format settings, Endianness              : Big
Codec ID                                 : A_DTS
Duration                                 : 1h 35mn
Bit rate mode                            : Constant
Bit rate                                 : 1 510 Kbps
Channel(s)                               : 2 channels
Channel positions                        : Front: L R
Sampling rate                            : 48.0 KHz
Bit depth                                : 16 bits
Compression mode                         : Lossy
Stream size                              : 1.00 GiB (20%)
Title                                    : Original 2.0 1510 kbps
Language                                 : English
Default                                  : No
Forced                                   : No

Text
ID                                       : 5
Format                                   : PGS
Muxing mode                              : zlib
Codec ID                                 : S_HDMV/PGS
Codec ID/Info                            : The same subtitle format used on BDs/HD-DVDs
Language                                 : English
Default                                  : No
Forced                                   : No


Код:
-[Information] Log for job1 (video, T1_Video -.avs -> T1_Video -.mkv)
--[Information] [20.05.2012 20:36:58] Started handling job
--[Information] [20.05.2012 20:36:58] Preprocessing
--[Information] [20.05.2012 20:36:58] Avisynth input script
---[NoImage] LoadPlugin("D:\MeGUI_1911_x86_WithoutInstaller\tools\dgindexnv\DGDecodeNV.dll")
---[NoImage] DGSource("D:\Nighthawks\T1_Video -.dgi",fieldop=0)
---[NoImage] #deinterlace
---[NoImage] crop(2, 22, -6, -18)
---[NoImage] Spline36Resize(1280,688) # Spline36 (Neutral)
---[NoImage] #denoise
--[Information] [20.05.2012 20:37:01] [DXVA]: target device selected
--[Information] [20.05.2012 20:37:01] Job commandline: "D:\MeGUI_1911_x86_WithoutInstaller\tools\\.exe" --level 4.1 --crf 18.0 --threads 12 --deblock -3:-3 --min-keyint 23 --bframes 10 --b-adapt 2 --ref 9 --chroma-qp-offset -4 --vbv-bufsize 62500 --vbv-maxrate 50000 --merange 32 --me tesa --direct auto --subme 11 --trellis 2 --no-fast-pskip --sar 1:1 --output "D:\Nighthawks\T1_Video -.mkv" "D:\Nighthawks\T1_Video -.avs"
--[Information] [20.05.2012 20:37:04] Encoding started
--[Information] [23.05.2012 8:27:11] Standard output stream
--[Information] [23.05.2012 8:27:14] Standard error stream
---[NoImage] avs [info]: 1280x688p 1:1 @ 25/1 fps (cfr)
---[NoImage] [info]: using SAR=1/1
---[NoImage] [info]: using cpu capabilities: MMX2 SSE2Fast SSSE3 FastShuffle SSE4.1 Cache64
---[NoImage] [info]: profile High, level 4.1
---[NoImage]
---[NoImage] [info]: frame I:929   Avg QP:15.77  size:124184
---[NoImage] [info]: frame P:29495 Avg QP:18.55  size: 45913
---[NoImage] [info]: frame B:112266 Avg QP:20.79  size: 22227
---[NoImage] [info]: consecutive B-frames:  1.5%  2.6%  3.6% 28.1% 28.1%  6.8%  7.8%  6.9% 11.9%  2.2%  0.6%
---[NoImage] [info]: mb I  I16..4:  4.1% 85.9% 10.0%
---[NoImage] [info]: mb P  I16..4:  1.0% 12.0%  0.9%  P16..4: 32.2% 37.5% 12.5%  0.0%  0.0%    skip: 3.8%
---[NoImage] [info]: mb B  I16..4:  0.1%  3.3%  0.1%  B16..8: 35.2% 20.8%  3.3%  direct:11.0%  skip:26.2%  L0:44.9% L1:45.3% BI: 9.8%
---[NoImage] [info]: 8x8 transform intra:89.9% inter:69.4%
---[NoImage] [info]: direct mvs  spatial:100.0% temporal:0.0%
---[NoImage] [info]: coded y,uvDC,uvAC intra: 92.3% 88.3% 71.2% inter: 36.5% 35.8% 8.9%
---[NoImage] [info]: i16 v,h,dc,p: 31% 12%  3% 54%
---[NoImage] [info]: i8 v,h,dc,ddl,ddr,vr,hd,vl,hu:  7%  6%  6% 12% 16% 14% 13% 13% 13%
---[NoImage] [info]: i4 v,h,dc,ddl,ddr,vr,hd,vl,hu: 11%  7%  4% 10% 15% 15% 13% 12% 13%
---[NoImage] [info]: i8c dc,h,v,p: 47% 20% 19% 14%
---[NoImage] [info]: Weighted P-Frames: Y:5.6% UV:3.5%
---[NoImage] [info]: ref P L0: 49.5%  7.5% 14.9%  8.0%  5.2%  5.4%  3.8%  2.9%  2.4%  0.3%  0.0%
---[NoImage] [info]: ref B L0: 78.6%  9.7%  5.0%  2.3%  1.9%  1.4%  0.9%  0.3%
---[NoImage] [info]: ref B L1: 91.7%  8.3%
---[NoImage] [info]: kb/s:5557.30
---[NoImage] encoded 142690 frames, 0.66 fps, 5557.30 kb/s
--[Information] Final statistics
---[Information] [23.05.2012 8:27:16] Constant Quality Mode: Quality 18 computed...
---[Information] [23.05.2012 8:27:17] Video Bitrate Obtained (approximate): 5558 kbit/s




Джерела та подяки: &
ріп відео, оригінальні звук та субтитри - Топтига (рутрекер); українська доріжка - NemoInFire - зведення, запис з ТБ: POMEO (1), Tanat13 (2, ICTV VHS); фільмографії акторів та інформація про озвучення - Віктор, Neo777 (всі - Гуртом).


ЗАЛИШАЙТЕСЬ ЯКОМОГА ДОВШЕ НА РОЗДАЧІ!

СКАЧАВ САМ - ДАЙ СКАЧАТИ ІНШИМ


Срібний реліз (на рейтинг впливає 50% завантаженого)
 Трекер:    Зареєстрований   

Завантажити / скачати фільм українською



відео для новачків



 Зареєстрований:   2015-01-09 11:57
 Розмір:   4.96 GB 
 Оцінка фільму:   3.7/10 (Голосів: 15)
   
Інші релізи
   Нічні яструби / Nighthawks (1981) HDTV 1080i 2хUkr/Eng | Sub Eng igor911  1 / 0   9.11 GB   2015-01-09 00:50 
   Нічні яструби / Nighthawks (1981) 2хUkr NemoInFire  5 / 0   1.33 GB   2013-10-25 16:56 
Ваш часовий пояс: GMT + 2 Години

Нова тема   Відповісти