Завантажити та скачати торренти українською


Нічні яструби / Nighthawks (1981) HDTV 1080i 2хUkr/Eng | Sub Eng

Нові коментарі

Нова тема   Відповісти
Автор Повідомлення
Anonymous 







2015-01-08 23:43  
Нічні яструби / Nighthawks (1981) HDTV 1080i 2хUkr/Eng | Sub Eng



Жанр: бойовик, трилер, кримінальний
Країна: США



Кінокомпанія: Universal Pictures, Herb Nanas Productions, Layton Productions, Martin Poll Productions, The Production Company
Режисер: Брюс Мелмат / Bruce Malmuth, Гері Нельсон / Gary Nelson
Актори: Сильвестер Сталлоне / Sylvester Stallone, Рутґер Гавер / Rutger Hauer, Біллі Ді Вільямс / Billy Dee Williams, Ліндсі Вагнер / Lindsay Wagner, Найджел Давенпорт / Nigel Davenport, Персіс Хамбатта / Persis Khambatta, Джо Спінелл / Joe Spinell та інші

Сюжет:
Відчайдушний сержант поліції Дік Де Сільва звик ловити злочинців в екстремальній ситуації "на живця", в ролі якого завжди виступав він сам. Але "адреналіновій" службі приходить кінець, після того, як героя переводять у новостворений антитерористичний підрозділ.

Однак нудьгувати на новій посаді Де Сільві не доведеться. У його місті з'явився відомий терорист - безжальний вбивця Хеймар Райнхардт, відомий за прізвиськом Вульфгар. Вульфгар захоплює заручників прямо в повітрі - у вагончику фунікулера, що прямує на Рузвельт-Айленд. Глядач стане свідком битви найсміливішого копа та найжорстокішого терориста!


Рейтинг MPAA: R - особам до 17 років обов'язкова присутність батьків або дорослого опікуна
Вікова категорія: 16+

Тривалість: 01:35:08
Якість: HDTV 1080i
Відео:
кодек:
розмір кадру: 1920 х 1080
бітрейт: 11,5 Мбіт/с
примітка: цей запис HDTV має кращу якість, ніж відео з Blu-ray диска
Порівняння HDTV та Blu-ray

HDTV vs BluRay





Аудіо # 1:
мова: українська
переклад: багатоголосий закадровий
ролі озвучили: Анатолій Зіновенко, Олесь Гімбаржевський, Ярослав Чорненький та Наталя Романько-Кисельова?
кодек: 2.0
бітрейт: 192 кбіт/с

Аудіо # 2:
мова: українська
переклад: двоголосий закадровий
кодек: 2.0
бітрейт: 192 кбіт/с

Аудіо # 3:
мова: англійська
переклад: оригінал
кодек: 2.0
бітрейт: 1510 кбіт/с

Субтитри:
мова: англійська
тип: пререндерні
формат: PGS
MediaInfo
Код:
General
Unique ID                                : 185597499002855103877011660066537990182 (0x8BA0C7311F53A0BE90EAAB711701E826)
Complete name                            : Nighthawks (1981) [2xUkr,Eng sub.Eng] HDTV 1080i [Hurtom & HDClub].mkv
Format                                   : Matroska
Format version                           : Version 4 / Version 2
File size                                : 9.11 GiB
Duration                                 : 1h 35mn
Overall bit rate mode                    : Variable
Overall bit rate                         : 13.7 Mbps
Movie name                               : Нічні яструби / Nighthawks (1981) [2xUkr,Eng sub.Eng] HDTV 1080i [Hurtom & HDClub]
Encoded date                             : UTC 2015-01-02 08:49:21
Writing application                      : mkvmerge v7.4.0 ('Circles') 64bit built on Dec 12 2014 12:19:56
Writing library                          : libebml v1.3.0 + libmatroska v1.4.1
DURATION                                 : 01:32:11.240000000
NUMBER_OF_FRAMES                         : 1504
NUMBER_OF_BYTES                          : 12955240
_STATISTICS_WRITING_APP                  : mkvmerge v7.4.0 ('Circles') 64bit built on Dec 12 2014 12:19:56
_STATISTICS_WRITING_DATE_UTC             : 2015-01-02 08:49:21
_STATISTICS_TAGS                         : BPS DURATION NUMBER_OF_FRAMES NUMBER_OF_BYTES

Video
ID                                       : 1
Format                                   : AVC
Format/Info                              : Advanced Video Codec
Format profile                           : [email protected]
Format settings, CABAC                   : Yes
Format settings, ReFrames                : 4 frames
Codec ID                                 : V_MPEG4/ISO/AVC
Duration                                 : 1h 35mn
Bit rate mode                            : Variable
Bit rate                                 : 11.5 Mbps
Maximum bit rate                         : 40.0 Mbps
Width                                    : 1 920 pixels
Height                                   : 1 080 pixels
Display aspect ratio                     : 16:9
Frame rate mode                          : Constant
Frame rate                               : 25.000 fps
Color space                              : YUV
Chroma subsampling                       : 4:2:0
Bit depth                                : 8 bits
Scan type                                : Interlaced
Scan order                               : Top Field First
Bits/(Pixel*Frame)                       : 0.223
Stream size                              : 7.67 GiB (84%)
Title                                    : Нічні яструби / Nighthawks (1981) HDTV 1080i [HDClub-Прагматик,dm8000]
Language                                 : English
Default                                  : Yes
Forced                                   : No
Color primaries                          : BT.709
Transfer characteristics                 : BT.709
Matrix coefficients                      : BT.709

Audio #1
ID                                       : 2
Format                                   : AC-3
Format/Info                              : Audio Coding 3
Mode extension                           : CM (complete main)
Format settings, Endianness              : Big
Codec ID                                 : A_AC3
Duration                                 : 1h 35mn
Bit rate mode                            : Constant
Bit rate                                 : 192 Kbps
Channel(s)                               : 2 channels
Channel positions                        : Front: L R
Sampling rate                            : 48.0 KHz
Bit depth                                : 16 bits
Compression mode                         : Lossy
Stream size                              : 131 MiB (1%)
Title                                    : MVO [Ukraina] 2.0 192 kbps [Hurtom-NemoInFire]
Language                                 : Ukrainian
Default                                  : Yes
Forced                                   : No

Audio #2
ID                                       : 3
Format                                   : AC-3
Format/Info                              : Audio Coding 3
Mode extension                           : CM (complete main)
Format settings, Endianness              : Big
Codec ID                                 : A_AC3
Duration                                 : 1h 35mn
Bit rate mode                            : Constant
Bit rate                                 : 192 Kbps
Channel(s)                               : 2 channels
Channel positions                        : Front: L R
Sampling rate                            : 48.0 KHz
Bit depth                                : 16 bits
Compression mode                         : Lossy
Stream size                              : 131 MiB (1%)
Title                                    : DVO [ICTV, VHS] 2.0 192 kbps [Hurtom-NemoInFire]
Language                                 : Ukrainian
Default                                  : No
Forced                                   : No

Audio #3
ID                                       : 4
Format                                   :
Format/Info                              : Digital Theater Systems
Mode                                     : 16
Format settings, Endianness              : Big
Codec ID                                 : A_DTS
Duration                                 : 1h 35mn
Bit rate mode                            : Constant
Bit rate                                 : 1 510 Kbps
Channel(s)                               : 2 channels
Channel positions                        : Front: L R
Sampling rate                            : 48.0 KHz
Bit depth                                : 16 bits
Compression mode                         : Lossy
Stream size                              : 1.00 GiB (11%)
Title                                    : Original 2.0 1510 kbps
Language                                 : English
Default                                  : No
Forced                                   : No

Text
ID                                       : 5
Format                                   : PGS
Muxing mode                              : zlib
Codec ID                                 : S_HDMV/PGS
Codec ID/Info                            : The same subtitle format used on BDs/HD-DVDs
Language                                 : English
Default                                  : No
Forced                                   : No




Джерела та подяки: &
ріп відео, оригінальні звук та субтитри - Daddy_BOSS (HDClub); українська доріжка - NemoInFire - зведення, запис з ТБ: POMEO (1), Tanat13 (2, ICTV VHS); фільмографії акторів та інформація про озвучення - Віктор, Neo777 (всі - Гуртом).


ЗАЛИШАЙТЕСЬ ЯКОМОГА ДОВШЕ НА РОЗДАЧІ!

СКАЧАВ САМ - ДАЙ СКАЧАТИ ІНШИМ


Срібний реліз (на рейтинг впливає 50% завантаженого)
 Трекер:    Зареєстрований   

Завантажити / скачати фільм українською



відео для новачків



 Зареєстрований:   2015-01-09 00:50
 Розмір:   9.11 GB 
 Оцінка фільму:   2.5/10 (Голосів: 12)
   
Інші релізи
   Нічні яструби / Nighthawks (1981) 720p 2хUkr/Eng | Sub Eng igor911  3 / 0   4.96 GB   2015-01-09 11:57 
   Нічні яструби / Nighthawks (1981) 2хUkr NemoInFire  4 / 0   1.33 GB   2013-10-25 16:56 
Anonymous 







2015-01-08 23:53  
також готова 720ка з цього відеоряду, буде вранці.
bot 
робот


З нами з: 30.09.07
Востаннє: 26.05.05
Повідомлень: 16004

2015-01-09 00:38  
Тему перенесено з Анонси релізів до форуму Фільми в HD


igor911

Ваш часовий пояс: GMT + 2 Години

Нова тема   Відповісти