Завантажити та скачати торренти українською


Талановитий містер Ріплі / The Talented Mr. Ripley (1999) 1080p Ukr/Eng | Sub Eng

Нові коментарі

Нова тема   Відповісти
Автор Повідомлення
Anonymous 







2015-01-08 15:58  
Талановитий містер Ріплі / The Talented Mr. Ripley (1999) 1080p Ukr/Eng | Sub Eng



Альтернативний постер



Жанр: трилер, драма, кримінальний, музичний
Країна: США



Кінокомпанія: Miramax, Paramount Pictures, Mirage Enterprises, Timnick Films
Режисер: Ентоні Мінґелла / Anthony Minghella
Актори: Мет Деймон / Matt Damon, Джуд Лоу / Jude Law, Ґвінет Пелтроу / Gwyneth Paltrow, Філіп Сеймур Гофмен / Philip Seymour Hoffman, Кейт Бланшет / Cate Blanchett, Джек Девенпорт / Jack Davenport, Джеймс Ребгорн / James Rebhorn, Серджіо Рубіні / Sergio Rubini, Філіп Бейкер Голл / Philip Baker Hall, Селія Вестон / Celia Weston

Сюжет:
Том Ріплі знав, що рано чи пізно він проб'ється вгору. Одного разу, після випадкового знайомства, один з найбагатших людей Америки дає Тому доручення з'їздити до Італії і переконати його сина, що тринькає гроші в Європі, повернутися в Штати...

Незабаром Том вже знайомиться з Дікі Грінліфом і Мардж. Їх розкішне життя зачаровує Тома. А пізніше обставини складаються так, що він вирішує зайняти місце Дікі.


Рейтинг MPAA: R - особам до 17 років обов'язкова присутність батьків або дорослого опікуна
Вікова категорія: 16+

Тривалість: 02:19:06
Якість: 1080p
Відео:
кодек:
розмір кадру: 1920 х 1080
бітрейт: 17,7 Мбіт/с [crf=18]

Аудіо # 1:
мова: українська
переклад: двоголосий закадровий
ролі озвучили: Олесь Гімбаржевський та Ірина Стасів
кодек: 2.0
бітрейт: 192 кбіт/с

Аудіо # 2:
мова: англійська
переклад: оригінал
кодек: 5.1
бітрейт: 1509 кбіт/с

Аудіо # 3:
мова: англійська
переклад: Коментар режисера Ентоні Мінґелла
кодек: 2.0
бітрейт: 224 кбіт/с

Субтитри:
мова: англійська
тип: програмні (м'які)
формат: *.srt

Збережено оригінальні розділи, як на Blu-ray.
MediaInfo
Код:
General
Unique ID                                : 246822299704665205551463052344302432971 (0xB9B03EEC614BF24D834084A1E5EAF2CB)
Complete name                            : The Talented Mr. Ripley (1999) [Ukr,Eng sub.Eng] 1080p [Hurtom & HDClub].mkv
Format                                   : Matroska
Format version                           : Version 4 / Version 2
File size                                : 19.4 GiB
Duration                                 : 2h 19mn
Overall bit rate                         : 20.0 Mbps
Movie name                               : Талановитий містер Ріплі / The Talented Mr. Ripley (1999) [Ukr,Eng sub.Eng] 1080p [Hurtom & HDClub]
Encoded date                             : UTC 2015-01-02 11:23:31
Writing application                      : mkvmerge v7.4.0 ('Circles') 64bit built on Dec 12 2014 12:19:56
Writing library                          : libebml v1.3.0 + libmatroska v1.4.1
DURATION                                 : 02:17:38.333000000
NUMBER_OF_FRAMES                         : 1828
NUMBER_OF_BYTES                          : 63183
_STATISTICS_WRITING_APP                  : mkvmerge v7.4.0 ('Circles') 64bit built on Dec 12 2014 12:19:56
_STATISTICS_WRITING_DATE_UTC             : 2015-01-02 11:23:31
_STATISTICS_TAGS                         : BPS DURATION NUMBER_OF_FRAMES NUMBER_OF_BYTES

Video
ID                                       : 1
Format                                   : AVC
Format/Info                              : Advanced Video Codec
Format profile                           : [email protected]
Format settings, CABAC                   : Yes
Format settings, ReFrames                : 4 frames
Codec ID                                 : V_MPEG4/ISO/AVC
Duration                                 : 2h 19mn
Bit rate                                 : 17.7 Mbps
Width                                    : 1 920 pixels
Height                                   : 1 080 pixels
Display aspect ratio                     : 16:9
Frame rate mode                          : Constant
Frame rate                               : 23.976 fps
Color space                              : YUV
Chroma subsampling                       : 4:2:0
Bit depth                                : 8 bits
Scan type                                : Progressive
Bits/(Pixel*Frame)                       : 0.356
Stream size                              : 17.2 GiB (88%)
Title                                    : Талановитий містер Ріплі / The Talented Mr. Ripley / Талантливый мистер Рипли (1999) 1080p [FANDANGO]
Writing library                          : core 130 r2273kMod b3065e6
Encoding settings                        : cabac=1 / ref=4 / deblock=1:-3:-3 / analyse=0x3:0x113 / me=umh / subme=9 / psy=1 / fade_compensate=0.00 / psy_rd=1.20:0.00 / mixed_ref=1 / me_range=16 / chroma_me=1 / trellis=2 / 8x8dct=1 / cqm=0 / deadzone=21,11 / fast_pskip=0 / chroma_qp_offset=-2 / threads=6 / lookahead_threads=1 / sliced_threads=0 / nr=0 / decimate=0 / interlaced=0 / bluray_compat=0 / constrained_intra=0 / bframes=8 / b_pyramid=2 / b_adapt=2 / b_bias=0 / direct=3 / weightb=1 / open_gop=0 / weightp=2 / keyint=250 / keyint_min=23 / scenecut=40 / intra_refresh=0 / rc_lookahead=40 / rc=crf / mbtree=1 / crf=18.0000 / qcomp=0.60 / qpmin=0 / qpmax=69 / qpstep=4 / ip_ratio=1.40 / aq=1:0.60
Language                                 : English
Default                                  : Yes
Forced                                   : No
DURATION                                 : 02:19:06.338000000
NUMBER_OF_FRAMES                         : 200112
NUMBER_OF_BYTES                          : 18865083355
_STATISTICS_WRITING_APP                  : mkvmerge v7.4.0 ('Circles') 64bit built on Dec 12 2014 12:19:56
_STATISTICS_WRITING_DATE_UTC             : 2015-01-02 11:23:31
_STATISTICS_TAGS                         : BPS DURATION NUMBER_OF_FRAMES NUMBER_OF_BYTES

Audio #1
ID                                       : 2
Format                                   : AC-3
Format/Info                              : Audio Coding 3
Mode extension                           : CM (complete main)
Format settings, Endianness              : Big
Codec ID                                 : A_AC3
Duration                                 : 2h 19mn
Bit rate mode                            : Constant
Bit rate                                 : 192 Kbps
Channel(s)                               : 2 channels
Channel positions                        : Front: L R
Sampling rate                            : 48.0 KHz
Bit depth                                : 16 bits
Compression mode                         : Lossy
Stream size                              : 191 MiB (1%)
Title                                    : DVO [1+1] 2.0 192 kbps [Hurtom-karvai0]
Language                                 : Ukrainian
Default                                  : Yes
Forced                                   : No

Audio #2
ID                                       : 3
Format                                   :
Format/Info                              : Digital Theater Systems
Mode                                     : 16
Format settings, Endianness              : Big
Codec ID                                 : A_DTS
Duration                                 : 2h 19mn
Bit rate mode                            : Constant
Bit rate                                 : 1 509 Kbps
Channel(s)                               : 6 channels
Channel positions                        : Front: L C R, Side: L R, LFE
Sampling rate                            : 48.0 KHz
Bit depth                                : 24 bits
Compression mode                         : Lossy
Stream size                              : 1.47 GiB (8%)
Title                                    : Original 5.1 1509 kbps
Language                                 : English
Default                                  : No
Forced                                   : No

Audio #3
ID                                       : 4
Format                                   : AC-3
Format/Info                              : Audio Coding 3
Format profile                           : Dolby Digital
Mode extension                           : CM (complete main)
Format settings, Endianness              : Big
Codec ID                                 : A_AC3
Duration                                 : 2h 19mn
Bit rate mode                            : Constant
Bit rate                                 : 224 Kbps
Channel(s)                               : 2 channels
Channel positions                        : Front: L R
Sampling rate                            : 48.0 KHz
Bit depth                                : 16 bits
Compression mode                         : Lossy
Stream size                              : 223 MiB (1%)
Title                                    : Commentary with Director Anthony Minghella
Language                                 : English
Default                                  : No
Forced                                   : No

Text
ID                                       : 5
Format                                   : UTF-8
Codec ID                                 : S_TEXT/UTF8
Codec ID/Info                            : UTF-8 Plain Text
Language                                 : English
Default                                  : No
Forced                                   : No

Menu
00:00:00.000                             : en:Borrowed Jacket
00:07:59.612                             : en:Partners in Disguise
00:10:09.242                             : en:Coincidence
00:14:21.160                             : en:Three Talents of Tom Ripley
00:18:20.399                             : en:"Bird"
00:22:19.972                             : en:Double Agent
00:29:11.249                             : en:Mysterious Mr. Ripley
00:32:46.097                             : en:Sightseeing
00:37:39.390                             : en:A Corduroy Jacket in Italy
00:43:09.387                             : en:Festival of Madonna
00:47:52.570                             : en:Confession
00:52:37.855                             : en:San Remo
00:58:50.594                             : en:Apology
01:03:44.554                             : en:New Beginning
01:09:03.706                             : en:Evening at the Opera
01:15:44.907                             : en:Chance Meeting
01:19:51.020                             : en:So Bourgeois
01:27:45.994                             : en:Police Inquiry
01:29:51.653                             : en:Tom's Return
01:38:17.759                             : en:Dickie's Letter
01:40:28.122                             : en:Friendship
01:48:16.290                             : en:Suspicion
01:59:28.328                             : en:Silent Promise
02:05:09.869                             : en:A Fake Somebody, a Real Nobody
02:14:02.034                             : en:End Credits




Джерела та подяки: &
ріп відео, оригінальні звук та субтитри - FANDANGO (PublicHD), madoff (HDClub); українська доріжка - karvai0 - зведення, OlegCena, Sando7 - запис з ТБ; фільмографії акторів та інформація про озвучення - Віктор, Elisatella, Neo777 (всі - Гуртом).


ЗАЛИШАЙТЕСЬ ЯКОМОГА ДОВШЕ НА РОЗДАЧІ!

СКАЧАВ САМ - ДАЙ СКАЧАТИ ІНШИМ


Срібний реліз (на рейтинг впливає 50% завантаженого)
 Трекер:    Зареєстрований   

Завантажити / скачати фільм українською



відео для новачків



 Зареєстрований:   2015-01-08 15:58
 Розмір:   19.44 GB 
 Оцінка фільму:   1.8/10 (Голосів: 11)
   
Anonymous 







2015-01-08 18:50  
Ваш часовий пояс: GMT + 2 Години

Нова тема   Відповісти