Завантажити та скачати торренти українською


Письменники Волі / Freedom Writers (2007) 720p Ukr/Eng | sub Eng

Нові коментарі

Нова тема   Відповісти
Автор Повідомлення
RobertMenus 
Відео Гуртом - субтитрування
Відео Гуртом - субтитрування


З нами з: 08.03.11
Востаннє: 05.12.16
Повідомлень: 73

2015-01-03 15:47  
Письменники Волі / Freedom Writers (2007) 720p Ukr/Eng | sub Eng

Письменники Волі / Freedom Writers (2007) 720p Ukr/Eng | sub Eng


Жанр: драма, біографічний, кримінальний
Країна: США



Кінокомпанія: Paramount Pictures, Double Feature Films, MTV Films, Jersey Films, Kernos Filmproduktionsgesellschaft & Company
Режисер: Річард ЛаГрейвнез
Актори: Гіларі Свонк, Патрік Демпзі, Скотт Гленн, Імелда Стонтон, Джейсон Фінн

Сюжет:
Розповідь про нелегкі будні вчительки англійської, яка викладає в одній із шкіл каліфорнійського містечка Лонг-Біч. Практично всі її учні - це особи, для яких англійська не є рідною. До того ж, Лонг-Біч відомий своїми бандитськими традиціями.


Тривалість: 02:02:57
Якість: 720p
Відео:
кодек:
розмір кадру: 1280*720
бітрейт: 4 445 кб/с

Аудіо 1:
мова: українська
переклад: багатоголосий закадровий
кодек: 2.0
бітрейт: 192 кб/с

Джерело озвучення:


Аудіо 2:
мова: англійська
переклад: оригінал
кодек: 5.1
бітрейт: 640 кб/с

Субтитри:
мова: англійська
тип: програмні (м'які)
формат: *.srt
MediaInfo

General
Unique ID : 180639579937991467753317721970493143440 (0x87E5EAE8C72D6427A33F05AB8698B990)
Complete name : D:\UAVoice\Письменники Волі\Freedom.Writers.2007.720p..Ukr.mkv
Format : Matroska
Format version : Version 2
File size : 4.53 GiB
Duration : 2h 2mn
Overall bit rate : 5 279 Kbps
Movie name : Письменники Волі (2007)
Encoded date : UTC 2015-01-03 14:10:46
Writing application : mkvmerge v4.8.0 ('I Got The...') зібрано May 24 2011 03:12:58
Writing library : libebml v1.2.0 + libmatroska v1.1.0

Video
ID : 1
Format : AVC
Format/Info : Advanced Video Codec
Format profile : [email protected]
Format settings, CABAC : Yes
Format settings, ReFrames : 8 frames
Codec ID : V_MPEG4/ISO/AVC
Duration : 2h 2mn
Bit rate : 4 445 Kbps
Width : 1 280 pixels
Height : 720 pixels
Display aspect ratio : 16:9
Frame rate : 23.976 fps
Color space : YUV
Chroma subsampling : 4:2:0
Bit depth : 8 bits
Scan type : Progressive
Bits/(Pixel*Frame) : 0.201
Stream size : 3.73 GiB (82%)
Writing library : core 54
Encoding settings : cabac=1 / ref=5 / deblock=1:-3:-2 / analyse=0x3:0x133 / me=umh / subme=7 / brdo=1 / mixed_ref=1 / me_range=16 / chroma_me=1 / trellis=1 / 8x8dct=1 / cqm=2 / deadzone=21,11 / chroma_qp_offset=0 / threads=3 / nr=0 / decimate=1 / mbaff=0 / bframes=3 / b_pyramid=1 / b_adapt=1 / b_bias=0 / direct=3 / wpredb=1 / bime=1 / keyint=250 / keyint_min=25 / scenecut=40(pre) / rc=2pass / bitrate=4445 / ratetol=1.0 / rceq='blurCplx^(1-qComp)' / qcomp=0.60 / qpmin=10 / qpmax=51 / qpstep=4 / cplxblur=20.0 / qblur=0.5 / ip_ratio=1.40 / pb_ratio=1.30
Language : English

Audio #1
ID : 2
Format : AC-3
Format/Info : Audio Coding 3
Mode extension : CM (complete main)
Codec ID : A_AC3
Duration : 2h 2mn
Bit rate mode : Constant
Bit rate : 192 Kbps
Channel(s) : 2 channels
Channel positions : Front: L R
Sampling rate : 48.0 KHz
Bit depth : 16 bits
Compression mode : Lossy
Stream size : 169 MiB (4%)
Title : Ukrainian
Language : Ukrainian

Audio #2
ID : 3
Format : AC-3
Format/Info : Audio Coding 3
Mode extension : CM (complete main)
Codec ID : A_AC3
Duration : 2h 2mn
Bit rate mode : Constant
Bit rate : 640 Kbps
Channel(s) : 6 channels
Channel positions : Front: L C R, Side: L R, LFE
Sampling rate : 48.0 KHz
Bit depth : 16 bits
Compression mode : Lossy
Stream size : 563 MiB (12%)
Title : English
Language : English

Text
ID : 4
Format : UTF-8
Codec ID : S_TEXT/UTF8
Codec ID/Info : UTF-8 Plain Text
Title : English SUB
Language : English
Скріншоти












Семпл озвучки, а не відео.

Джерело:
Особиста оцінка: 10 - без зайвих вагань рекомендую всім!


Авторський реліз (завантажувати можна без реєстрації)
 Трекер:    Зареєстрований   

Завантажити / скачати фільм українською



відео для новачків



 Зареєстрований:   2015-01-03 16:24
 Розмір:   4.53 GB 
 Оцінка фільму:   9.7/10 (Голосів: 18)
   
Інші релізи
[email protected] 
Відео Гуртом - дизайнер
Відео Гуртом - дизайнер


З нами з: 20.10.10
Востаннє: 06.12.16
Повідомлень: 214

2015-01-03 18:48  
Семпл є?
RobertMenus 
Відео Гуртом - субтитрування
Відео Гуртом - субтитрування


З нами з: 08.03.11
Востаннє: 05.12.16
Повідомлень: 73

2015-01-03 20:29  
sizars
ні. можливо, буде, коли хоча б у когось збереться цілий фільм. тоді я зможу з чистою совістю тимчасово відімкнути відвантаження і завантажити кудись семпл.

[email protected] 
Відео Гуртом - дизайнер
Відео Гуртом - дизайнер


З нами з: 20.10.10
Востаннє: 06.12.16
Повідомлень: 214

2015-01-04 00:35  
RobertMenus
Дякую.

Додано через 31 секунду:

То фільм озвучує UAvoice?

RobertMenus 
Відео Гуртом - субтитрування
Відео Гуртом - субтитрування


З нами з: 08.03.11
Востаннє: 05.12.16
Повідомлень: 73

2015-01-04 03:10  
власне кажучи, ні. збірна. є представники багатьох команд.
[email protected] 
Відео Гуртом - дизайнер
Відео Гуртом - дизайнер


З нами з: 20.10.10
Востаннє: 06.12.16
Повідомлень: 214

2015-01-04 12:06  
Цікаво почути, що в результаті вийшло. Чекаю семпл, якщо Ваша ласка.
Віталій Прискурій 
Свій


З нами з: 18.06.13
Востаннє: 01.12.16
Повідомлень: 144

2015-01-21 12:55  
Незабаром зроблю у 1080 та з доріжкою у 5.1
Shukh 
Свій


З нами з: 20.08.11
Востаннє: 06.12.16
Повідомлень: 148

2015-04-12 23:24  
Прекрасний фільм!
10/10

Ваш часовий пояс: GMT + 2 Години

Нова тема   Відповісти