Завантажити та скачати торренти українською


Cherry-Merry - Listen Loud! (2014) [FLAC] | Rock

Нові коментарі

Нова тема   Відповісти
Автор Повідомлення
Khtos 
Свій


З нами з: 24.06.09
Востаннє: 02.12.16
Повідомлень: 107

2015-01-02 18:32  
Cherry-Merry - Listen Loud! (2014) [FLAC] | Rock


Стиль: Rock
Країна, місто: Україна, Миколаїв
Видавець: Moon Records
Пісні:
    1. Rock'n'Rolla
    2. The Dark Side
    3. More Fire
    4. Braces
    5. My Cat
    6. Britannic
    7. Madman's Pray
    8. Que Pasa?
    9. Talking
    10. The Word Is Your Arms
    11. Right Now
    12. Rave
    13. Kryptonite

Тривалість: 00:34:56
Мова: Англійська, іспанська - 8
Аудіо-кодек: FLAC
Бітрейт: 941 кб/с
Джерело: Власний ріп
Додаткова інформація:
"Log"

Exact Audio Copy V1.0 beta 4 from 7. December 2014

EAC extraction logfile from 2. January 2015, 18:15

Cherry Merry / Listen Loud!

Used drive : hp DVD A DS8A5LH Adapter: 1 ID: 0

Read mode : Secure
Utilize accurate stream : Yes
Defeat audio cache : Yes
Make use of C2 pointers : No

Read offset correction : 6
Overread into Lead-In and Lead-Out : No
Fill up missing offset samples with silence : Yes
Delete leading and trailing silent blocks : No
Null samples used in CRC calculations : Yes
Used interface : Installed external ASPI interface

Used output format : User Defined Encoder
Selected bitrate : 128 kBit/s
Quality : High
Add ID3 tag : No
Command line compressor : C:\Program Files (x86)\Exact Audio Copy\Flac\flac.exe
Additional command line options : -V -8 -T "Date=%year%" -T "Genre=%genre%" %source%

TOC of the extracted CD

Track | Start | Length | Start sector | End sector
---------------------------------------------------------
1 | 0:00.00 | 2:24.54 | 0 | 10853
2 | 2:24.54 | 3:45.00 | 10854 | 27728
3 | 6:09.54 | 2:27.25 | 27729 | 38778
4 | 8:37.04 | 2:16.28 | 38779 | 49006
5 | 10:53.32 | 2:28.28 | 49007 | 60134
6 | 13:21.60 | 2:05.16 | 60135 | 69525
7 | 15:27.01 | 4:08.62 | 69526 | 88187
8 | 19:35.63 | 2:24.59 | 88188 | 99046
9 | 22:00.47 | 3:10.25 | 99047 | 113321
10 | 25:10.72 | 2:39.01 | 113322 | 125247
11 | 27:49.73 | 2:19.53 | 125248 | 135725
12 | 30:09.51 | 2:04.60 | 135726 | 145085
13 | 32:14.36 | 2:41.50 | 145086 | 157210

Range status and errors

Selected range

Filename H:\Лоси\Cherry Merry - Listen Loud!.wav

Peak level 100.0 %
Extraction speed 4.5 X
Range quality 100.0 %
Test CRC 8F13E50C
Copy CRC 8F13E50C
Copy OK

No errors occurred

End of status report
Якщо Ви справді бажаєте підтримати українське - після прослуховування, якщо музика вам сподобалась, придбайте ліцензійний диск. Підтримаємо вітчизняних виконавців!


Як кажуть учасники гурту, альбом "Listen Loud!", створений в нелегких умовах незалежної української сцени – це певний симбіоз мелодійного британського indie і напористого гітарного американського "гаражного року". Коротко і вичерпно. Але варто додати, що за інших пропорцій це міг би бути доволі сутінковий, похмурий диск – однак насправді він настільки переповнений живою, хуліганською енергією, що аж бризки летять, і "сироти" на обкладинці – не випадкові. І його дійсно варто слухати голосно – бо, попри стильові особливості, якось тут немає зайвих шумів, все добре допасовано. Відповідно – залишився простір для чистого драйву, і цей простір працює на повну. Тож все просто, можна вмикати – і відриватись!


Срібний реліз (на рейтинг впливає 50% завантаженого)
 Трекер:    Зареєстрований   

Завантажити / скачати українську музику



відео для новачків



 Зареєстрований:   2015-01-02 18:32
 Розмір:   235 MB 
 Оцінка музики:   6.6/10 (Голосів: 8)
   
Deformal 
Localize Team
Localize Team


З нами з: 30.12.12
Востаннє: 26.02.15
Повідомлень: 79

2015-01-02 18:55  
Прийшов сюди почитати коментарі - вони ж бо мають вдатися на славу. Там і "Я проти таких речей на толоці", і "це абсолютно не припустимо", нарешті "як таке взагалі можна показувати\слухати!" Сподіваются, ці пани мене не розчарують.
-_-B_E_N_D_E_R-_- 
Оцифрування книг Гуртом
Оцифрування книг Гуртом


З нами з: 09.01.14
Востаннє: 06.12.16
Повідомлень: 125

2015-01-02 20:04  
ЦИЦЬКА
ssTAss 
Модератор музики


З нами з: 05.07.08
Востаннє: 06.12.16
Повідомлень: 10946

2015-01-03 01:19  
Khtos
робіть і в мр3 320, а я свій реліз перенесу в архів

Khtos 
Свій


З нами з: 24.06.09
Востаннє: 02.12.16
Повідомлень: 107

2015-01-03 16:12  
ssTAss
Сьогодні і цей і Akapulko зроблю

Ваш часовий пояс: GMT + 2 Години

Нова тема   Відповісти