Завантажити та скачати торренти українською


Akapulko - Двері в рай (2014) [FLAC] | Rock

Нові коментарі

Нова тема   Відповісти
Автор Повідомлення
Khtos 
Свій


З нами з: 24.06.09
Востаннє: 02.12.16
Повідомлень: 107

2015-01-02 17:43  
Akapulko - Двері в рай (2014) [FLAC] | Rock


Стиль: Rock
Країна, місто: Україна, Київ
Видавець: Vacante Music
Виконавці:
Рузана Агаджанова – вокал
Сергій Сахно – барабани
Олексій Мельченко – бас-гітара
Сергій Алешаєв – гітара
Євген Коцур – клавішні
Пісні:
    01. Двері в рай
    02. Знайома річ
    03. Kiss For Memory
    04. Атмосфера
    05. Шалений світ
    06. День як ніч
    07. Ранкова
    08. Кольорові сни

Тривалість: 00:34:24
Мова: українська
Аудіо-кодек: FLAC
Бітрейт: 963 кб/с
Джерело: Власний ріп
Додаткова інформація:
"Log"

Exact Audio Copy V1.0 beta 4 from 7. December 2014

EAC extraction logfile from 2. January 2015, 17:16

Akapulko / Двері в рай

Used drive : hp DVD A DS8A5LH Adapter: 1 ID: 0

Read mode : Secure
Utilize accurate stream : Yes
Defeat audio cache : Yes
Make use of C2 pointers : No

Read offset correction : 6
Overread into Lead-In and Lead-Out : No
Fill up missing offset samples with silence : Yes
Delete leading and trailing silent blocks : No
Null samples used in CRC calculations : Yes
Used interface : Installed external ASPI interface

Used output format : User Defined Encoder
Selected bitrate : 128 kBit/s
Quality : High
Add ID3 tag : No
Command line compressor : C:\Program Files (x86)\Exact Audio Copy\Flac\flac.exe
Additional command line options : -V -8 -T "Date=%year%" -T "Genre=%genre%" %source%

TOC of the extracted CD

Track | Start | Length | Start sector | End sector
---------------------------------------------------------
1 | 0:00.00 | 3:55.38 | 0 | 17662
2 | 3:55.38 | 3:59.02 | 17663 | 35589
3 | 7:54.40 | 3:36.51 | 35590 | 51840
4 | 11:31.16 | 4:10.44 | 51841 | 70634
5 | 15:41.60 | 4:09.54 | 70635 | 89363
6 | 19:51.39 | 4:56.41 | 89364 | 111604
7 | 24:48.05 | 5:07.06 | 111605 | 134635
8 | 29:55.11 | 4:29.01 | 134636 | 154811

Range status and errors

Selected range

Filename H:\Лоси\Akapulko - Двері в рай.wav

Peak level 96.6 %
Extraction speed 4.4 X
Range quality 100.0 %
Test CRC 2A0E0A17
Copy CRC 2A0E0A17
Copy OK

No errors occurred

End of status report
Якщо Ви справді бажаєте підтримати українське - після прослуховування, якщо музика вам сподобалась, придбайте ліцензійний диск. Підтримаємо вітчизняних виконавців!


"AKAPULKO – авторський проект Сергія Сахна, мультиінструменталіста, композитора, аранжувальника і барабанщика легендарних Воплів Відоплясова. Для реалізації своїх музичних ідей новатору і перфекціоністу Сахну знадобилося майже десять років... Останнім і головним "пазлом" стала солістка, здатна передати і помножити всю красу музики пана Сахна: мініатюрна брюнетка з ангельським поглядом і унікальним магнетичним голосом, до того ж – авторка неймовірно яскравих, емоційних текстів. Рузана Агаджанова.
AKAPULKO презентує абсолютно новий музичний стиль "тріп-твіст" (або "повільний твіст"), а також неймовірний мікс з українського мелосу, жорсткого динамічного "рокапопсу" і блюзової психоделії 60-х в поєднанні з модним сьогодні "новим берлінським звуком" (New sound of Berlin). У ролі музичного продюсера альбому виступив Матіас Лодмальм, шведський музикант і саунд-продюсер, в минулому лідер культових груп Cemetary та Sundown (в різний час працював з Lake Of Tears, Tiamat, Vasaria та ін.), а нині – власник і головний алхімік берлінської Electric Detective Studios." (з матеріалів офіційного прес-релізу)


Срібний реліз (на рейтинг впливає 50% завантаженого)
 Трекер:    Зареєстрований   

Завантажити / скачати українську музику



відео для новачків



 Зареєстрований:   2015-01-02 17:43
 Розмір:   237 MB 
 Оцінка музики:   9.7/10 (Голосів: 7)
   
ssTAss 
Модератор музики


З нами з: 05.07.08
Востаннє: 02.12.16
Повідомлень: 10928

2015-01-03 02:13  
цікавий альбом, але поки не більше
Khtos написано:
мініатюрна брюнетка з ангельським поглядом і унікальним магнетичним голосом, до того ж – авторка неймовірно яскравих, емоційних текстів. Рузана Агаджанова.


теж посперечатись можна
в твістових треках - супер (день як ніч, кольорові сни... навіть в трохи важчій знайомій речі), а от в рокових - не зовсім (двері в рай, шалений світ)
але може це мені так.. занадто придираюсь
може не так вокал не підходить, як не зовсім гармоніюють тексти з музикою.. поки не розібрався
Виконавці:
Рузана Агаджанова – вокал
Сергій Сахно – барабани
Олексій Мельченко – бас-гітара
Сергій Алешаєв – гітара
Євген Коцур – клавішні

Khtos 
Свій


З нами з: 24.06.09
Востаннє: 02.12.16
Повідомлень: 107

2015-01-03 16:14  
ssTAss
Стасе, прес-реліз не я готував.

Але альбом таки цікавий. Сподіваюсь ту бі контінюед

Ваш часовий пояс: GMT + 2 Години

Нова тема   Відповісти