Завантажити та скачати торренти українською


Джуманджі (Сезон 1) / Jumanji: The Animated Series (1996-1997) AVC Ukr/Eng

Нові коментарі

Нова тема   Відповісти
Автор Повідомлення
4erkov 
Відео Гуртом - запис з ТБ
Відео Гуртом - запис з ТБ


З нами з: 09.10.10
Востаннє: 04.12.16
Повідомлень: 1846

2015-01-01 20:44  
Джуманджі (Сезон 1) / Jumanji: The Animated Series (1996-1997) AVC Ukr/Eng


Жанр: пригодницький, комедія, сімейний
Країна: США

Кіностудія / кінокомпанія: Columbia Tristar
Режисер: Боб Хечкок, Стів Рессель
Актори/ролі озвучують: Білл Фагербаккі, Дебі Дерріберрі, Ешлі Джонсон, Тім Каррі, Шерман Ховард, Вільям Сендерсон та інші.
Сюжет:
Брат і сестра, Пітер і Джуді Шеперд, переїжджають у новий будинок разом з тіткою Нори. Вивчаючи житло, на горищі вони знаходять старовинну настільну гру Джуманджі. Не здогадуючись про те, що гра не проста, а чарівна, діти кидають кістки і зникають у світі Джуманджі... Знайти дорогу назад буде зовсім не просто ... У цьому на власному досвіді переконався зниклий багато років тому Елан Періш, який за час мандрів по лабіринтах Джуманджі заріс і став схожим на людину джунглів. А мисливець ван Пелт, його лакей Оуфол, божевільний винахідник і зграя мавпочок вже постараються, щоб і Шеперди застрягли в Джуманджі як можна довше, якщо не назавжди...
Додаткова інформація: в Україні мультсеріал транслювали телеканали ICTV (російською мовою), Інтер та Новий канал.

Тривалість: 1 серія: ~ 22 хв. (цілком серій: 13)
Перелік серій
Сезон 1 (1996-1997):
01. The Price
02. Bargaining for Time
03. Ransom of Redhead
04. Masked Identity
05. Master Builder
06. No Dice
07. Love on the Rocks
08. The Law of Jumanji
09. Stormy Weather
10. El Pollo Jumanji
11. Perfect Match
12. The Gift
13. Truth or Consequently

Якість:
Відео:
кодек:
розмір кадру: 640x480
бітрейт: ~ 1650 кб/с

Аудіо # 1:
мова: українська
переклад: двоголосий закадровий
кодек: 2.0
бітрейт: 192 кб/с

Аудіо # 2:
мова: англійська
переклад: оригінал
кодек: 2.0
бітрейт: 192 кб/с
Переклад виконано і озвучено:
Media-Info
Код:
General
Unique ID                                : 213380713239149322811993238286435051044 (0xA087A169A4017A99B7F62ABA64536624)
Format                                   : Matroska
Format version                           : Version 4 / Version 2
File size                                : 319 MiB
Duration                                 : 21mn 38s
Overall bit rate                         : 2 062 Kbps
Movie name                               : 1x02 - Bargaining for Time [Hurtom]
Encoded date                             : UTC 2015-01-01 13:15:10
Writing application                      : mkvmerge v6.4.1 ('Omega Point') built on Sep 16 2013 22:05:10
Writing library                          : libebml v1.3.0 + libmatroska v1.4.1

Video
ID                                       : 1
Format                                   : AVC
Format/Info                              : Advanced Video Codec
Format profile                           : [email protected]
Format settings, CABAC                   : Yes
Format settings, ReFrames                : 10 frames
Codec ID                                 : V_MPEG4/ISO/AVC
Duration                                 : 21mn 38s
Bit rate                                 : 1 637 Kbps
Width                                    : 640 pixels
Height                                   : 480 pixels
Display aspect ratio                     : 4:3
Frame rate mode                          : Constant
Frame rate                               : 23.976 fps
Color space                              : YUV
Chroma subsampling                       : 4:2:0
Bit depth                                : 8 bits
Scan type                                : Progressive
Bits/(Pixel*Frame)                       : 0.222
Stream size                              : 253 MiB (79%)
Writing library                          : core 133 r2334 a3ac64b
Encoding settings                        : cabac=1 / ref=10 / deblock=1:0:0 / analyse=0x3:0x113 / me=umh / subme=8 / psy=1 / psy_rd=1.00:0.00 / mixed_ref=1 / me_range=16 / chroma_me=1 / trellis=1 / 8x8dct=1 / cqm=0 / deadzone=21,11 / fast_pskip=1 / chroma_qp_offset=-2 / threads=12 / lookahead_threads=3 / sliced_threads=0 / nr=0 / decimate=1 / interlaced=0 / bluray_compat=0 / constrained_intra=0 / bframes=5 / b_pyramid=2 / b_adapt=2 / b_bias=0 / direct=3 / weightb=1 / open_gop=0 / weightp=2 / keyint=240 / keyint_min=23 / scenecut=40 / intra_refresh=0 / rc_lookahead=50 / rc=crf / mbtree=1 / crf=16.5 / qcomp=0.60 / qpmin=0 / qpmax=69 / qpstep=4 / vbv_maxrate=17500 / vbv_bufsize=17500 / crf_max=0.0 / nal_hrd=none / ip_ratio=1.40 / aq=1:1.00
Language                                 : English
Default                                  : Yes
Forced                                   : No

Audio #1
ID                                       : 2
Format                                   : AC-3
Format/Info                              : Audio Coding 3
Mode extension                           : CM (complete main)
Format settings, Endianness              : Big
Codec ID                                 : A_AC3
Duration                                 : 21mn 38s
Bit rate mode                            : Constant
Bit rate                                 : 192 Kbps
Channel count                            : 2 channels
Channel positions                        : Front: L R
Sampling rate                            : 48.0 KHz
Bit depth                                : 16 bits
Compression mode                         : Lossy
Stream size                              : 29.7 MiB (9%)
Title                                    : Новий канал
Language                                 : Ukrainian
Default                                  : Yes
Forced                                   : No

Audio #2
ID                                       : 3
Format                                   : AC-3
Format/Info                              : Audio Coding 3
Mode extension                           : CM (complete main)
Format settings, Endianness              : Big
Codec ID                                 : A_AC3
Duration                                 : 21mn 38s
Bit rate mode                            : Constant
Bit rate                                 : 192 Kbps
Channel count                            : 2 channels
Channel positions                        : Front: L R
Sampling rate                            : 48.0 KHz
Bit depth                                : 16 bits
Compression mode                         : Lossy
Stream size                              : 29.7 MiB (9%)
Title                                    : Original
Language                                 : English
Default                                  : No
Forced                                   : No

Скріншоти:


Над релізом працювали:
SerGoLeOne - придбання дисків, оригінальний реліз. ALEKS KV - відеоріпи.
4erkov - запис, зведення. DVO, Technomate - страхування запису. Повна інформація в оригінальному релізі.

Розшукуються записи з Інтера у будь-якій якості. Якщо маєте їх на касетах, чи у цифровому вигляді, прохання відписати в ПП.

Джерело: &


Срібний реліз (на рейтинг впливає 50% завантаженого)
 Трекер:    Зареєстрований   

Завантажити / скачати мультфільм українською



відео для новачків



 Зареєстрований:   2015-01-01 20:44
 Розмір:   3.99 GB 
 Оцінка мультсеріалу:   10/10 (Голосів: 14)
   
НТН 
Відео Гуртом - фільмокрай
Відео Гуртом - фільмокрай


З нами з: 25.12.11
Востаннє: 10.11.16
Повідомлень: 2001

2015-01-01 20:56  
Ото спасибі величезне за реліз. Я дуже люблю цей мульт...
4erkov 
Відео Гуртом - запис з ТБ
Відео Гуртом - запис з ТБ


З нами з: 09.10.10
Востаннє: 04.12.16
Повідомлень: 1846

2015-01-01 23:21  
НТН написано:
Ото спасибі величезне за реліз. Я дуже люблю цей мульт...

Будь ласка)

До речі, порівняння (DVD vs ріп): http://screenshotcomparison.com/comparison/106856/picture:0

akon111 
Відео Гуртом - запис з ТБ
Відео Гуртом - запис з ТБ


З нами з: 28.08.09
Востаннє: 04.12.16
Повідомлень: 1205

2015-02-23 01:46  
колись по ICTV показували
Yarik M 
Відео Гуртом - підтримка та поширення
Відео Гуртом - підтримка та поширення


З нами з: 25.10.12
Востаннє: 04.12.16
Повідомлень: 177

2015-04-05 10:44  
Дякую!
А наступні сезони будуть? Хоча б в теорії?

Estranded 
VIP


З нами з: 09.02.14
Востаннє: 05.12.16
Повідомлень: 835

2015-04-05 10:51  
Yarik M написано:
А наступні сезони будуть? Хоча б в теорії?

Колись давніше не ексі були записи з нового каналу/ictv до більшості( можливо до всіх) серій, я ще пам'ятаю там додивився до кінця весь м/с.

Yarik M 
Відео Гуртом - підтримка та поширення
Відео Гуртом - підтримка та поширення


З нами з: 25.10.12
Востаннє: 04.12.16
Повідомлень: 177

2015-04-05 12:54  
Estranded, було б непогано побачити їх тут в такій же якості!
Може хтось-таки візьметься колись?

Ваш часовий пояс: GMT + 2 Години

Нова тема   Відповісти