Завантажити та скачати торренти українською


Хоббіт. Трилогія [Розширене видання] / Гобіт. Трилогія [Розширене видання] / The Hobbit: The Motion Picture Trilogy [Extended Edition] (2012, 2013, 2014) 720p Ukr/Eng | sub Ukr/Eng

Нові коментарі

Нова тема   Відповісти
Автор Повідомлення
DеLight 
Відео Гуртом - фільмокрай
Відео Гуртом - фільмокрай


З нами з: 24.08.11
Востаннє: 17.11.16
Повідомлень: 664

2015-01-01 19:39  
Хоббіт. Трилогія [Розширене видання] / Гобіт. Трилогія [Розширене видання] /
The Hobbit: The Motion Picture Trilogy [Extended Edition] (2012, 2013, 2014) 720p Ukr/Eng | sub Ukr/Eng




Хоббіт. Несподівана подорож / Гобіт. Несподівана подорож / The Hobbit: An Unexpected Journey (2012) 720p Ukr/2xEng | sub Ukr/Eng

Хоббіт. Несподівана подорож [Розширене видання] /
Гобіт. Несподівана подорож [Розширене видання] /
The Hobbit: An Unexpected Journey [Extended Edition] (2012) 720p Ukr/2xEng | sub Ukr/Eng




Жанр: пригодницький, фентезі
Країна: США, Нова Зеландія



Кінокомпанія: New Line Cinema, Metro-Goldwyn-Mayer (MGM), WingNut Films
Режисер: Пітер Джексон / Peter Jackson
Актори: Єн МакКеллен / Ian McKellen, Мартін Фріман / Martin Freeman, Річард Армітейдж / Richard Armitage, Кен Стот / Ken Stott, Г’юґо Вівінґ / Hugo Weaving, Кейт Бланшет / Cate Blanchett, Крістофер Лі / Christopher Lee, Енді Серкіс / Andy Serkis, Сильвестр МакКой / Sylvester McCoy, Ману Беннет / Manu Bennett та інші

Сюжет:
Гобіт Більбо Беґґінс, чарівник Ґендальф і 13 гномів, очолюваних легендарним воїном Торіном Дубощитом, вирушають в ґрандіозний похід, метою якого є відвоювати втрачене королівство гномів Еребор у страхітливого дракона Смоґа. Їх дорога лежить через незвідані Дикі Землі, переповнені ґоблінами та орками, смертоносними варґами та велетенськими павуками, чаклунами та тварюками, здатними змінювати свою подобу.


Тривалість: 03:02:30 {театральна версія: 02:49:37}
Якість: 720p [WiKi]

Відео:
кодек:
розмір кадру: 1280 x 534
бітрейт: 5 481 кб/с

Аудіо #1:
мова: українська
переклад: професійний дубльований | Postmodern
кодек: 5.1
бітрейт: 448 кб/с
Інформація про дубляж:

Переклад: Романа Дяченка
Режисер дубляжу: Анна Пащенко
Музичний керівник: Тетяна Піроженко
Координатор дубляжу: Катерина Фуртас
Ролі дублювали: Єн МакКеллен/Ґендальф — Олександр Ігнатуша, Мартін Фрімен/Більбо — Олесь Гімбаржевський, Річард Ермітаж/Торін — Михайло Жонін, Єн Гольм/Старий Більбо — Юрій Висоцький, Джеймс Несбіт/Бофур — Михайло Войчук, Стівен Гантер/Бомбур — Сергій Солопай, Вільям Кірхер/Біфур — Дмитро Вікулов, Адам Браун/Орі — Дмитро Бузинський, Джед Брофі/Норі — Андрій Альохін, Марк Гедлоу/Дорі — Анатолій Зіновенко, Джон Каллен/Ойн — Анатолій Барчук, Кен Стот/Балін — Євген Малуха, Ґрем МакТевіш/Двалін — Михайло Кукуюк, Філі — Андрій Федінчик, Айден Тернер/Кілі — Дмитро Гаврилов, Пітер Ґемблтон/Ґлойн — Василь Мазур, Енді Серкіс/Ґоллум/Смеаґол — Михайло Кришталь, Крістофер Лі/Саруман — Віталій Дорошенко, Г’юґо Вівінґ/Елронд — Ігор Волков, Брет МакКензі/Ліндір — Іван Розін, Кейт Бланшет/Ґаладріель — Ольга Сумська, Елайджа Вуд/Фродо — Павло Лі, Сильвестр МаКой/Радаґаст — Максим Кондратюк, Барі Гемфріс/Верховний ґоблін — Олександр Бондаренко, Троль №1 — Андрій Мостренко, Троль №2 — Володимир Ніколаєнко, Троль №3 — Володимир Терещук та інші.
Пісні виконували: Сергій Юрченко, Олексій Крячун, Михайло Кукуюк, Дмитро Гаврилов, Андрій Федінчик, Микола Горбатов, Станіслав Бадрак, Тарас Бережанский, Володимир Трач, Василь Пудченко, Михайло Кришталь, Олександр Бондаренко та інші.
Аудіо #2:
мова: англійська
переклад: оригінал
кодек: 5.1
бітрейт: 1 536 кб/с

Аудіо #3:
мова: англійська
переклад: коментарі
кодек: 2.0
бітрейт: 71 кб/с

Субтитри #1: на неозвучені місця, мови орків, ельфів, пісні
мова: українська
тип: програмні (м'які)
формат: *.srt

Субтитри #2: повні
мова: українська
тип: програмні (м'які)
формат: *.srt

Субтитри #3-5: forced, full, SDH
мова: англійська
тип: програмні (м'які)
формат: *.srt


Трейлер


MediaInfo

Код:
General
Unique ID                      : 174277479642651898670693820391667317465 (0x831C9F259BCE9BB2A45E2D455F38BAD9)
Complete name                  : D:\Torrents\The Hobbit. The Motion Picture Trilogy [Extended Edition] (2012, 2013, 2014) 720p [ukr, eng] [Hurtom]\The Hobbit. An Unexpected Journey [Extended Edition] (2012) 720p [ukr, 2xeng] [Hurtom].mkv
Format                         : Matroska
Format version                 : Version 4 / Version 2
File size                      : 9.57 GiB
Duration                       : 3h 2mn
Overall bit rate               : 7 507 Kbps
Encoded date                   : UTC 2015-01-01 10:18:22
Writing application            : mkvmerge v7.2.0 ('On Every Street') 64bit built on Sep 13 2014 15:52:10
Writing library                : libebml v1.3.0 + libmatroska v1.4.1
DURATION                       : 02:55:52.792000000
NUMBER_OF_FRAMES               : 2467
NUMBER_OF_BYTES                : 64119
_STATISTICS_WRITING_APP        : mkvmerge v7.2.0 ('On Every Street') 64bit built on Sep 13 2014 15:52:10
_STATISTICS_WRITING_DATE_UTC   : 2015-01-01 10:18:22
_STATISTICS_TAGS               : BPS DURATION NUMBER_OF_FRAMES NUMBER_OF_BYTES

Video
ID                             : 1
Format                         : AVC
Format/Info                    : Advanced Video Codec
Format profile                 : [email protected]
Format settings, CABAC         : Yes
Format settings, ReFrames      : 12 frames
Codec ID                       : V_MPEG4/ISO/AVC
Duration                       : 3h 2mn
Nominal bit rate               : 5 481 Kbps
Width                          : 1 280 pixels
Height                         : 534 pixels
Display aspect ratio           : 2.40:1
Frame rate mode                : Constant
Frame rate                     : 23.976 fps
Color space                    : YUV
Chroma subsampling             : 4:2:0
Bit depth                      : 8 bits
Scan type                      : Progressive
Bits/(Pixel*Frame)             : 0.334
Title                          : The Hobbit: An Unexpected Journey [Extended Edition] (2012) 720p [WiKi]
Writing library                : core 124 r2197+666+28 3970b70 tMod+MixAQ [[email protected]:2:0 X86_64]
Encoding settings              : cabac=1 / ref=12 / deblock=1:-2:-2 / analyse=0x3:0x133 / me=tesa / subme=11 / psy=1 / fade_compensate=0.00 / psy_rd=0.95:0.05 / mixed_ref=1 / me_range=32 / chroma_me=1 / trellis=2 / 8x8dct=1 / cqm=0 / deadzone=21,11 / fast_pskip=0 / chroma_qp_offset=-3 / threads=12 / sliced_threads=0 / nr=0 / decimate=0 / interlaced=0 / bluray_compat=0 / constrained_intra=0 / fgo=0 / bframes=8 / b_pyramid=2 / b_adapt=2 / b_bias=0 / direct=3 / weightb=1 / open_gop=0 / weightp=2 / keyint=250 / keyint_min=23 / scenecut=40 / intra_refresh=0 / rc=2pass / mbtree=0 / bitrate=5481 / ratetol=1.0 / qcomp=0.75 / qpmin=0 / qpmax=69 / qpstep=4 / cplxblur=20.0 / qblur=0.5 / ip_ratio=1.40 / pb_ratio=1.30 / aq=1 / aq-strength=0.90 / aq-sensitivity=10.00 / aq-ifactor=1.00 / aq-pfactor=1.00 / aq-bfactor=1.00 / aq2=0
Language                       : English
Default                        : Yes
Forced                         : No
DURATION                       : 03:02:30.398000000
NUMBER_OF_FRAMES               : 262547
NUMBER_OF_BYTES                : 7499829366
_STATISTICS_WRITING_APP        : mkvmerge v7.2.0 ('On Every Street') 64bit built on Sep 13 2014 15:52:10
_STATISTICS_WRITING_DATE_UTC   : 2015-01-01 10:18:22
_STATISTICS_TAGS               : BPS DURATION NUMBER_OF_FRAMES NUMBER_OF_BYTES

Audio #1
ID                             : 2
Format                         : AC-3
Format/Info                    : Audio Coding 3
Mode extension                 : CM (complete main)
Format settings, Endianness    : Big
Codec ID                       : A_AC3
Duration                       : 3h 2mn
Bit rate mode                  : Constant
Bit rate                       : 448 Kbps
Channel(s)                     : 6 channels
Channel positions              : Front: L C R, Side: L R, LFE
Sampling rate                  : 48.0 KHz
Compression mode               : Lossy
Stream size                    : 585 MiB (6%)
Title                          : DUB [Postmodern]
Language                       : Ukrainian
Default                        : Yes
Forced                         : No

Audio #2
ID                             : 3
Format                         :
Format/Info                    : Digital Theater Systems
Mode                           : 16
Format settings, Endianness    : Big
Codec ID                       : A_DTS
Duration                       : 3h 2mn
Bit rate mode                  : Constant
Bit rate                       : 1 509 Kbps
Channel(s)                     : 6 channels
Channel positions              : Front: L C R, Side: L R, LFE
Sampling rate                  : 48.0 KHz
Bit depth                      : 24 bits
Compression mode               : Lossy
Stream size                    : 1.92 GiB (20%)
Title                          : Original
Language                       : English
Default                        : No
Forced                         : No

Audio #3
ID                             : 4
Format                         :
Format/Info                    : Advanced Audio Codec
Format profile                 : HE- / LC
Codec ID                       : A_AAC
Duration                       : 3h 2mn
Channel(s)                     : 2 channels
Channel positions              : Front: L R
Sampling rate                  : 48.0 KHz / 24.0 KHz
Compression mode               : Lossy
Delay relative to video        : 31ms
Title                          : Commentary
Language                       : English
Default                        : No
Forced                         : No

Text #1
ID                             : 5
Format                         : UTF-8
Codec ID                       : S_TEXT/UTF8
Codec ID/Info                  : UTF-8 Plain Text
Title                          : Forced
Language                       : Ukrainian
Default                        : Yes
Forced                         : No

Text #2
ID                             : 6
Format                         : UTF-8
Codec ID                       : S_TEXT/UTF8
Codec ID/Info                  : UTF-8 Plain Text
Title                          : Full
Language                       : Ukrainian
Default                        : No
Forced                         : No

Text #3
ID                             : 7
Format                         : UTF-8
Codec ID                       : S_TEXT/UTF8
Codec ID/Info                  : UTF-8 Plain Text
Title                          : Forced
Language                       : English
Default                        : No
Forced                         : No

Text #4
ID                             : 8
Format                         : UTF-8
Codec ID                       : S_TEXT/UTF8
Codec ID/Info                  : UTF-8 Plain Text
Title                          : Full
Language                       : English
Default                        : No
Forced                         : No

Text #5
ID                             : 9
Format                         : UTF-8
Codec ID                       : S_TEXT/UTF8
Codec ID/Info                  : UTF-8 Plain Text
Title                          : SDH
Language                       : English
Default                        : No
Forced                         : No

Menu
00:00:00.000                   : en:Prologue: The Fall of Erebor
00:10:11.903                   : en:"In a Hole in the Ground There Lived a Hobbit"
00:14:08.723                   : en:Very Old Friends
00:17:27.255                   : en:Mr. Baggins
00:18:44.623                   : en:An Unexpected Party
00:23:16.604                   : en:"Blunt the Knives"
00:27:59.469                   : en:A Map, A Key and A Contract
00:36:04.871                   : en:"Misty Mountains"
00:41:17.266                   : en:"...The World Ahead"
00:46:30.830                   : en:The Battle of Azanulbizar
00:53:04.181                   : en:Radagast the Brown
00:58:07.651                   : en:Trollshaws
00:59:55.300                   : en:Roast Mutton
01:10:42.405                   : en:A Troll-hoard
01:15:01.831                   : en:The Hill of Sorcery
01:18:52.811                   : en:Warg-scouts
01:24:56.925                   : en:Rivendell
01:30:34.429                   : en:A Short Rest
01:34:10.603                   : en:Moon Runes
01:37:24.464                   : en:The Defiler
01:39:03.479                   : en:The Last Homely House
01:41:40.803                   : en:The White Council
01:50:22.533                   : en:"Why the Halfling?"
01:52:59.773                   : en:Over Hill
01:59:06.348                   : en:Under Hill
02:03:57.513                   : en:The Great Goblin
02:09:51.575                   : en:Riddles in the Dark
02:23:21.426                   : en:Biter and Beater
02:25:18.877                   : en:The Ring
02:26:31.199                   : en:Escape from Goblin Town
02:30:52.919                   : en:The Pity of Bilbo
02:33:00.546                   : en:"Home is Behind..."
02:35:52.593                   : en:Out of the Frying Pan...
02:46:51.210                   : en:A Good Omen
02:52:21.373                   : en:Credits

Скріншоти


























Джерело: &
Особиста оцінка: найулюбленіші фільми разом з "Володарем перснів"

Хоббіт. Пустка Смоґа / Гобіт. Пустка Смоґа / The Hobbit: The Desolation of Smaug (2013) 720p Ukr/Eng | sub Ukr/Eng

Хоббіт. Пустка Смоґа [Розширене видання] /
Гобіт. Пустка Смоґа [Розширене видання] /
The Hobbit: The Desolation of Smaug [Extended Edition] (2013) 720p Ukr/Eng | sub Ukr/Eng




Жанр: пригодницький, фентезі
Країна: США, Нова Зеландія



Кінокомпанія: New Line Cinema, Metro-Goldwyn-Mayer (MGM), WingNut Films
Режисер: Пітер Джексон / Peter Jackson
Актори: Єн МакКеллен / Ian McKellen, Мартін Фріман / Martin Freeman, Річард Армітейдж / Richard Armitage, Кен Стот / Ken Stott, Орландо Блум / Orlando Bloom, Еванджелін Ліллі / Evangeline Lilly, Лі Пейс / Lee Pace, Мікаел Персбрандт / Mikael Persbrandt, Кейт Бланшет / Cate Blanchett, Крістофер Лі / Christopher Lee, Енді Серкіс / Andy Serkis, Сильвестр МакКой / Sylvester McCoy, Ману Беннет / Manu Bennett та інші

Сюжет:
Друга частина подорожі Більбо Беґґінса, Ґендальфа та 13 гномів. Вони перейшли через Імлисті гори, тепер попереду таємниче та гнітюче Темнолісся, за яким лежить пустище дракона Смоґа, Самотня гора - найбільше королівство гномів в Середзем’ї.


Тривалість: 03:06:35 {театральна версія: 02:41:16}
Якість: 720p [WiKi]

Відео:
кодек:
розмір кадру: 1280 x 534
бітрейт: 5 010 кб/с

Аудіо #1:
мова: українська
переклад: професійний дубльований | Postmodern
кодек: 5.1
бітрейт: 448 кб/с
Інформація про дубляж:
Аудіо #2:
мова: англійська
переклад: оригінал
кодек: 5.1
бітрейт: 1 536 кб/с

Субтитри #1: на неозвучені місця, мови орків, ельфів, пісні
мова: українська
тип: програмні (м'які)
формат: *.srt

Субтитри #2: повні
мова: українська
тип: програмні (м'які)
формат: *.srt

Субтитри #3-5: full, SDH, SDH Colored
мова: англійська
тип: програмні (м'які)
формат: *.srt


Трейлери




MediaInfo

Код:
General
Unique ID                      : 176321380654993518307934549887353415771 (0x84A6433F40C91A3DAF5B13953240E85B)
Complete name                  : D:\Torrents\The Hobbit. The Motion Picture Trilogy [Extended Edition] (2012, 2013, 2014) 720p [ukr, eng] [Hurtom]\The Hobbit. The Desolation of Smaug [Extended Edition] (2013) 720p [ukr, eng] [Hurtom].mkv
Format                         : Matroska
Format version                 : Version 4 / Version 2
File size                      : 9.08 GiB
Duration                       : 3h 6mn
Overall bit rate               : 6 968 Kbps
Encoded date                   : UTC 2015-01-01 09:40:40
Writing application            : mkvmerge v7.2.0 ('On Every Street') 64bit built on Sep 13 2014 15:52:10
Writing library                : libebml v1.3.0 + libmatroska v1.4.1
DURATION                       : 03:05:29.762000000
NUMBER_OF_FRAMES               : 2282
NUMBER_OF_BYTES                : 71994
_STATISTICS_WRITING_APP        : mkvmerge v7.2.0 ('On Every Street') 64bit built on Sep 13 2014 15:52:10
_STATISTICS_WRITING_DATE_UTC   : 2015-01-01 09:40:40
_STATISTICS_TAGS               : BPS DURATION NUMBER_OF_FRAMES NUMBER_OF_BYTES

Video
ID                             : 1
Format                         : AVC
Format/Info                    : Advanced Video Codec
Format profile                 : [email protected]
Format settings, CABAC         : Yes
Format settings, ReFrames      : 12 frames
Codec ID                       : V_MPEG4/ISO/AVC
Duration                       : 3h 6mn
Bit rate                       : 5 010 Kbps
Width                          : 1 280 pixels
Height                         : 534 pixels
Display aspect ratio           : 2.40:1
Frame rate mode                : Constant
Frame rate                     : 23.976 fps
Color space                    : YUV
Chroma subsampling             : 4:2:0
Bit depth                      : 8 bits
Scan type                      : Progressive
Bits/(Pixel*Frame)             : 0.306
Stream size                    : 6.35 GiB (70%)
Title                          : The Hobbit: The Desolation of Smaug [Extended Edition] (2013) 720p [WiKi]
Writing library                : core 129 r2245+704+36 8e61944 tMod+MixAQ [[email protected]:2:0 X86_64]
Encoding settings              : cabac=1 / ref=12 / deblock=1:-3:-3 / analyse=0x3:0x133 / me=umh / subme=11 / psy=1 / fade_compensate=0.00 / psy_rd=1.05:0.10 / mixed_ref=1 / me_range=32 / chroma_me=1 / trellis=2 / 8x8dct=1 / cqm=0 / deadzone=21,11 / fast_pskip=0 / chroma_qp_offset=-3 / threads=18 / lookahead_threads=3 / sliced_threads=0 / nr=0 / decimate=0 / interlaced=0 / bluray_compat=0 / constrained_intra=0 / fgo=0 / bframes=10 / b_pyramid=2 / b_adapt=2 / b_bias=0 / direct=3 / weightb=1 / open_gop=0 / weightp=2 / keyint=250 / keyint_min=23 / scenecut=40 / intra_refresh=0 / rc_lookahead=80 / rc=2pass / mbtree=1 / bitrate=5010 / ratetol=1.0 / qcomp=0.70 / qpmin=0 / qpmax=69 / qpstep=4 / cplxblur=20.0 / qblur=0.5 / ip_ratio=1.40 / aq=3 / aq-strength=0.80 / aq-sensitivity=10.00 / aq-ifactor=1.00 / aq-pfactor=1.00 / aq-bfactor=1.00 / aq2=0
Language                       : English
Default                        : Yes
Forced                         : No
DURATION                       : 03:06:34.892000000
NUMBER_OF_FRAMES               : 268409
NUMBER_OF_BYTES                : 7008879263
_STATISTICS_WRITING_APP        : mkvmerge v7.2.0 ('On Every Street') 64bit built on Sep 13 2014 15:52:10
_STATISTICS_WRITING_DATE_UTC   : 2015-01-01 09:40:40
_STATISTICS_TAGS               : BPS DURATION NUMBER_OF_FRAMES NUMBER_OF_BYTES

Audio #1
ID                             : 2
Format                         : AC-3
Format/Info                    : Audio Coding 3
Mode extension                 : CM (complete main)
Format settings, Endianness    : Big
Codec ID                       : A_AC3
Duration                       : 3h 6mn
Bit rate mode                  : Constant
Bit rate                       : 448 Kbps
Channel(s)                     : 6 channels
Channel positions              : Front: L C R, Side: L R, LFE
Sampling rate                  : 48.0 KHz
Compression mode               : Lossy
Stream size                    : 598 MiB (6%)
Title                          : DUB [Postmodern]
Language                       : Ukrainian
Default                        : Yes
Forced                         : No

Audio #2
ID                             : 3
Format                         :
Format/Info                    : Digital Theater Systems
Mode                           : 16
Format settings, Endianness    : Big
Codec ID                       : A_DTS
Duration                       : 3h 6mn
Bit rate mode                  : Constant
Bit rate                       : 1 509 Kbps
Channel(s)                     : 6 channels
Channel positions              : Front: L C R, Side: L R, LFE
Sampling rate                  : 48.0 KHz
Bit depth                      : 24 bits
Compression mode               : Lossy
Stream size                    : 1.97 GiB (22%)
Title                          : Original
Language                       : English
Default                        : No
Forced                         : No

Text #1
ID                             : 4
Format                         : UTF-8
Codec ID                       : S_TEXT/UTF8
Codec ID/Info                  : UTF-8 Plain Text
Title                          : Forced
Language                       : Ukrainian
Default                        : Yes
Forced                         : No

Text #2
ID                             : 5
Format                         : UTF-8
Codec ID                       : S_TEXT/UTF8
Codec ID/Info                  : UTF-8 Plain Text
Title                          : Full
Language                       : Ukrainian
Default                        : No
Forced                         : No

Text #3
ID                             : 6
Format                         : UTF-8
Codec ID                       : S_TEXT/UTF8
Codec ID/Info                  : UTF-8 Plain Text
Title                          : Full
Language                       : English
Default                        : No
Forced                         : No

Text #4
ID                             : 7
Format                         : UTF-8
Codec ID                       : S_TEXT/UTF8
Codec ID/Info                  : UTF-8 Plain Text
Title                          : SDH
Language                       : English
Default                        : No
Forced                         : No

Text #5
ID                             : 8
Format                         : UTF-8
Codec ID                       : S_TEXT/UTF8
Codec ID/Info                  : UTF-8 Plain Text
Title                          : SDH Colored
Language                       : English
Default                        : No
Forced                         : No

Menu
00:00:00.000                   : en:The Quest for Erebor**
00:07:33.411                   : en:Wilderland
00:12:00.302                   : en:The Master Summons
00:12:59.445                   : en:A Commander of Legions
00:15:55.371                   : en:Queer Lodgings*
00:20:56.922                   : en:Last of the Skin-changers
00:23:15.435                   : en:Where the Shadows Lie*
00:25:52.676                   : en:The Elven-gate**
00:29:59.255                   : en:Mirkwood**
00:38:14.041                   : en:Flies and Spiders
00:46:43.842                   : en:The Woodland Realm
00:49:46.316                   : en:The Elvenking
00:53:19.529                   : en:King and Captain
00:55:10.223                   : en:Feast of Starlight
00:58:07.859                   : en:Barrels Out of Bond
01:08:42.326                   : en:The High Fells
01:12:22.338                   : en:Bard the Bowman
01:15:45.707                   : en:The Nature of Evil
01:19:10.162                   : en:Smuggled Cargo
01:22:46.836                   : en:Lake-town
01:25:09.687                   : en:The Master of Lake-town**
01:28:07.740                   : en:The World of Men**
01:31:15.553                   : en:The Home of Bard
01:36:02.756                   : en:"It Is Our Fight"
01:37:35.891                   : en:The Prophecy**
01:40:35.404                   : en:A Warm Welcome**
01:45:16.518                   : en:The Parting of the Company**
01:48:44.476                   : en:The Lonely Mountain**
01:50:31.750                   : en:A Spell of Concealment**
01:52:36.541                   : en:The Hidden Door
01:53:08.448                   : en:Son of Thror*
01:59:16.357                   : en:On the Doorstep
02:07:11.832                   : en:Kingsfoil
02:07:39.109                   : en:The Courage of Hobbits
02:09:22.671                   : en:The Enemy Revealed**
02:12:48.585                   : en:Inside Information
02:22:00.845                   : en:The Black Arrow
02:22:43.429                   : en:In the Dragon's Lair
02:23:17.922                   : en:Under Arrest
02:24:56.396                   : en:Bilbo the Burgler
02:26:45.087                   : en:Smaug the Magnificent
02:29:18.824                   : en:Orc Attach
02:33:12.975                   : en:Confrontations
02:34:57.621                   : en:Elvish Medicine
02:36:13.155                   : en:Hunter and Hunted
02:37:45.956                   : en:"She Walks In Starlight"
02:39:08.830                   : en:A Desperate Plan
02:41:39.940                   : en:Duel in Lake-town
02:44:06.002                   : en:The Forges Relit
02:51:16.683                   : en:Smaug the Golden
02:56:05.555                   : en:Credits

Скріншоти


























Джерело: &
Особиста оцінка: найулюбленіші фільми разом з "Володарем перснів"

Хоббіт. Битва п’яти воїнств / Гобіт. Битва п’яти армій / The Hobbit: The Battle of the Five Armies (2014) 720p Ukr/2xEng | sub Ukr/Eng

Хоббіт. Битва п’яти воїнств [Розширене видання] /
Гобіт. Битва п’яти армій [Розширене видання] /
The Hobbit: The Battle of the Five Armies [Extended Edition] (2014) 720p Ukr/2xEng | sub Ukr/Eng




Жанр: пригодницький, фентезі
Країна: США, Нова Зеландія



Кінокомпанія: New Line Cinema, Metro-Goldwyn-Mayer (MGM), WingNut Films
Режисер: Пітер Джексон / Peter Jackson
Актори: Єн МакКеллен / Ian McKellen, Мартін Фріман / Martin Freeman, Річард Армітейдж / Richard Armitage, Кен Стот / Ken Stott, Ґрегем МакТавіш / Graham McTavish, Орландо Блум / Orlando Bloom, Еванджелін Ліллі / Evangeline Lilly, Лі Пейс / Lee Pace, Г’юґо Вівінґ / Hugo Weaving, Кейт Бланшет / Cate Blanchett, Крістофер Лі / Christopher Lee, Енді Серкіс / Andy Serkis, Сильвестр МакКой / Sylvester McCoy, Ману Беннет / Manu Bennett, Єн Голм / Ian Holm та інші

Сюжет:
Кінець легенди і початок великої історії. Це остаточно змінить життя Середзем’я. Виграна битва, але вся війна попереду. Маленький трофей гобіта володіє надзвичайною силою. Ми про це знаємо, а Більбо про це ще навіть не здогадується.
Чи зможуть Більбо і гноми повернути рідне містечко Еребор і скарби відібрані Смоґом? Якщо так, то чи зможуть вони їх утримати?


Тривалість: 02:44:02 {театральна версія: 02:24:28}
Якість: 720p [WiKi]

Відео:
кодек:
розмір кадру: 1280 x 534
бітрейт: 5 500 кб/с

Аудіо #1:
мова: українська
переклад: професійний дубльований | Postmodern
кодек: 5.1
бітрейт: 448 кб/с
Інформація про дубляж:
Аудіо #2:
мова: англійська
переклад: оригінал
кодек: 5.1
бітрейт: 1 536 кб/с

Аудіо #3:
мова: англійська
переклад: коментарі
кодек: 2.0
бітрейт: 68 кб/с

Субтитри #1: на неозвучені місця, мови орків, ельфів, пісні
мова: українська
тип: програмні (м'які)
формат: *.srt

Субтитри #2: повні
мова: українська
тип: програмні (м'які)
формат: *.srt

Субтитри #3-5: full, SDH, SDH Colored
мова: англійська
тип: програмні (м'які)
формат: *.srt


Трейлери




MediaInfo

Код:
General
Unique ID                      : 196888164897848749992310963074130223272 (0x941F47FFD1640CF088404CE8E96BA0A8)
Complete name                  : D:\Torrents\The Hobbit. The Motion Picture Trilogy [Extended Edition] (2012, 2013, 2014) 720p [ukr, eng] [Hurtom]\The Hobbit. The Battle of the Five Armies [Exteded Edition] (2014) 720p [ukr, 2xeng] [Hurtom].mkv
Format                         : Matroska
Format version                 : Version 4 / Version 2
File size                      : 8.63 GiB
Duration                       : 2h 44mn
Overall bit rate               : 7 527 Kbps
Encoded date                   : UTC 2015-12-26 11:14:36
Writing application            : mkvmerge v8.6.1 ('Flying') 64bit
Writing library                : libebml v1.3.3 + libmatroska v1.4.4
DURATION                       : 02:42:04.721000000
NUMBER_OF_FRAMES               : 1549
NUMBER_OF_BYTES                : 50024
_STATISTICS_WRITING_APP        : mkvmerge v8.6.1 ('Flying') 64bit
_STATISTICS_WRITING_DATE_UTC   : 2015-12-26 11:14:36
_STATISTICS_TAGS               : BPS DURATION NUMBER_OF_FRAMES NUMBER_OF_BYTES

Video
ID                             : 1
Format                         : AVC
Format/Info                    : Advanced Video Codec
Format profile                 : [email protected]
Format settings, CABAC         : Yes
Format settings, ReFrames      : 12 frames
Codec ID                       : V_MPEG4/ISO/AVC
Duration                       : 2h 44mn
Nominal bit rate               : 5 500 Kbps
Width                          : 1 280 pixels
Height                         : 534 pixels
Display aspect ratio           : 2.40:1
Frame rate mode                : Constant
Frame rate                     : 23.976 fps
Color space                    : YUV
Chroma subsampling             : 4:2:0
Bit depth                      : 8 bits
Scan type                      : Progressive
Bits/(Pixel*Frame)             : 0.336
Title                          : The Hobbit. The Battle of the Five Armies (2014) [Extended Edition] (2012) 720p [WiKi]
Writing library                : core 142 r2431+42 c69a006 tMod [[email protected] X86_64]
Encoding settings              : cabac=1 / ref=12 / deblock=1:-2:-2 / analyse=0x3:0x133 / me=tesa / subme=11 / psy=1 / fade_compensate=0.00 / psy_rd=0.95:0.05 / mixed_ref=1 / me_range=32 / chroma_me=1 / trellis=2 / 8x8dct=1 / cqm=0 / deadzone=21,11 / fast_pskip=0 / chroma_qp_offset=-3 / threads=12 / lookahead_threads=3 / sliced_threads=0 / nr=0 / decimate=0 / interlaced=0 / bluray_compat=0 / constrained_intra=0 / fgo=0 / bframes=10 / b_pyramid=2 / b_adapt=2 / b_bias=0 / direct=3 / weightb=1 / open_gop=0 / weightp=2 / keyint=250 / keyint_min=23 / scenecut=40 / intra_refresh=0 / rc=2pass / mbtree=0 / bitrate=5500 / ratetol=1.0 / qcomp=0.75 / qpmin=0:0:0 / qpmax=69:69:69 / qpstep=4 / cplxblur=20.0 / qblur=0.5 / ip_ratio=1.40 / pb_ratio=1.30 / aq=1:0.90 / aq-sensitivity=10.00 / aq-factor=1.00:1.00:1.00 / aq2=0 / aq3=0
Language                       : English
Default                        : Yes
Forced                         : No
Color range                    : Limited
Matrix coefficients            : BT.709
DURATION                       : 02:44:02.541000000
NUMBER_OF_FRAMES               : 235985
NUMBER_OF_BYTES                : 6766639464
_STATISTICS_WRITING_APP        : mkvmerge v8.6.1 ('Flying') 64bit
_STATISTICS_WRITING_DATE_UTC   : 2015-12-26 11:14:36
_STATISTICS_TAGS               : BPS DURATION NUMBER_OF_FRAMES NUMBER_OF_BYTES

Audio #1
ID                             : 2
Format                         : AC-3
Format/Info                    : Audio Coding 3
Mode extension                 : CM (complete main)
Format settings, Endianness    : Big
Codec ID                       : A_AC3
Duration                       : 2h 44mn
Bit rate mode                  : Constant
Bit rate                       : 448 Kbps
Channel(s)                     : 6 channels
Channel positions              : Front: L C R, Side: L R, LFE
Sampling rate                  : 48.0 KHz
Compression mode               : Lossy
Stream size                    : 526 MiB (6%)
Title                          : DUB [Postmodern]
Language                       : Ukrainian
Default                        : Yes
Forced                         : No

Audio #2
ID                             : 3
Format                         :
Format/Info                    : Digital Theater Systems
Mode                           : 16
Format settings, Endianness    : Big
Codec ID                       : A_DTS
Duration                       : 2h 44mn
Bit rate mode                  : Constant
Bit rate                       : 1 509 Kbps
Channel(s)                     : 6 channels
Channel positions              : Front: L C R, Side: L R, LFE
Sampling rate                  : 48.0 KHz
Bit depth                      : 24 bits
Compression mode               : Lossy
Stream size                    : 1.73 GiB (20%)
Title                          : Original
Language                       : English
Default                        : No
Forced                         : No

Audio #3
ID                             : 4
Format                         :
Format/Info                    : Advanced Audio Codec
Format profile                 : HE- / LC
Codec ID                       : A_AAC
Duration                       : 2h 44mn
Channel(s)                     : 2 channels
Channel positions              : Front: L R
Sampling rate                  : 48.0 KHz / 24.0 KHz
Compression mode               : Lossy
Delay relative to video        : 31ms
Title                          : Commentary
Language                       : English
Default                        : No
Forced                         : No

Text #1
ID                             : 5
Format                         : UTF-8
Codec ID                       : S_TEXT/UTF8
Codec ID/Info                  : UTF-8 Plain Text
Title                          : Forced
Language                       : Ukrainian
Default                        : Yes
Forced                         : No

Text #2
ID                             : 6
Format                         : UTF-8
Codec ID                       : S_TEXT/UTF8
Codec ID/Info                  : UTF-8 Plain Text
Title                          : Full
Language                       : Ukrainian
Default                        : No
Forced                         : No

Text #3
ID                             : 7
Format                         : UTF-8
Codec ID                       : S_TEXT/UTF8
Codec ID/Info                  : UTF-8 Plain Text
Title                          : Full
Language                       : English
Default                        : No
Forced                         : No

Text #4
ID                             : 8
Format                         : UTF-8
Codec ID                       : S_TEXT/UTF8
Codec ID/Info                  : UTF-8 Plain Text
Title                          : SDH
Language                       : English
Default                        : No
Forced                         : No

Text #5
ID                             : 9
Format                         : UTF-8
Codec ID                       : S_TEXT/UTF8
Codec ID/Info                  : UTF-8 Plain Text
Title                          : SDH Colored
Language                       : English
Default                        : No
Forced                         : No

Menu
00:00:00.000                   : en:00:00:00.000
00:05:12.395                   : en:00:05:12.395
00:12:47.058                   : en:00:12:47.058
00:13:19.298                   : en:00:13:19.298
00:18:57.428                   : en:00:18:57.428
00:23:42.171                   : en:00:23:42.171
00:24:56.161                   : en:00:24:56.161
00:26:04.563                   : en:00:26:04.563
00:27:33.026                   : en:00:27:33.026
00:35:45.685                   : en:00:35:45.685
00:36:41.282                   : en:00:36:41.282
00:40:41.898                   : en:00:40:41.898
00:42:01.144                   : en:00:42:01.144
00:43:11.756                   : en:00:43:11.756
00:46:16.148                   : en:00:46:16.148
00:51:27.668                   : en:00:51:27.668
00:54:57.961                   : en:00:54:57.961
00:56:14.830                   : en:00:56:14.830
00:58:31.299                   : en:00:58:31.299
01:00:26.957                   : en:01:00:26.957
01:02:43.593                   : en:01:02:43.593
01:06:10.175                   : en:01:06:10.175
01:12:23.297                   : en:01:12:23.297
01:17:22.555                   : en:01:17:22.555
01:20:36.331                   : en:01:20:36.331
01:24:57.217                   : en:01:24:57.217
01:28:41.775                   : en:01:28:41.775
01:30:52.280                   : en:01:30:52.280
01:33:02.160                   : en:01:33:02.160
01:35:12.832                   : en:01:35:12.832
01:38:32.490                   : en:01:38:32.490
01:39:42.894                   : en:01:39:42.894
01:41:00.596                   : en:01:41:00.596
01:45:03.506                   : en:01:45:03.506
01:47:13.636                   : en:01:47:13.636
01:49:05.289                   : en:01:49:05.289
01:50:03.013                   : en:01:50:03.013
01:52:59.606                   : en:01:52:59.606
01:53:51.283                   : en:01:53:51.283
01:57:15.237                   : en:01:57:15.237
02:05:38.573                   : en:02:05:38.573
02:12:07.044                   : en:02:12:07.044
02:15:26.243                   : en:02:15:26.243
02:18:32.513                   : en:02:18:32.513
02:20:07.441                   : en:02:20:07.441
02:22:27.205                   : en:02:22:27.205
02:26:11.596                   : en:02:26:11.596
02:30:54.462                   : en:02:30:54.462

Скріншоти
































Джерело: &
Особиста оцінка: найулюбленіші фільми разом з "Володарем перснів"


За синхронізацію і роботу над українськими доріжками та субтитрами подяка Demrandir,
за інформацію про українські дубляжі - Віктору.





Срібний реліз (на рейтинг впливає 50% завантаженого)
 Трекер:    Зареєстрований   

Завантажити / скачати фільм українською



відео для новачків



 Зареєстрований:   2015-12-27 17:10
 Розмір:   27.28 GB 
 Оцінка фільму:   9.9/10 (Голосів: 83)
   
DеLight 
Відео Гуртом - фільмокрай
Відео Гуртом - фільмокрай


З нами з: 24.08.11
Востаннє: 17.11.16
Повідомлень: 664

2015-01-01 19:41  
Субтитри до неозвучених місць я відредагував/змінив. Оновлю після виходу блюра заключної частини.
Оповідач 
Поважний учасник


З нами з: 13.03.11
Востаннє: 08.12.16
Повідомлень: 196

2015-01-02 01:30  
А коли приблизно він вийде ?
Bod_zik99 
VIP


З нами з: 28.12.13
Востаннє: 07.12.16
Повідомлень: 825

2015-01-02 09:19  
Зробіть хтось в 720-mini будь ласка
kill_1 
Свій


З нами з: 11.07.10
Востаннє: 06.12.16
Повідомлень: 74

2015-01-02 11:11  
Підтримую пана Bod_zik99
Bod_zik99 
VIP


З нами з: 28.12.13
Востаннє: 07.12.16
Повідомлень: 825

2015-01-02 16:30  
Оповідач
В березні-квітні

dima77777 
Поважний учасник


З нами з: 28.11.12
Востаннє: 07.12.16
Повідомлень: 198

2015-01-02 20:12  
ДЯКУЮ ВАМ ЗА РЕЛІЗ
DеLight 
Відео Гуртом - фільмокрай
Відео Гуртом - фільмокрай


З нами з: 24.08.11
Востаннє: 17.11.16
Повідомлень: 664

2015-01-04 13:31  
Хоббіт: Битва п'яти воїнств. Офіційний український трейлер (2014) HD | 2K


Оповідач 
Поважний учасник


З нами з: 13.03.11
Востаннє: 08.12.16
Повідомлень: 196

2015-01-04 23:48  
Bod_zik99
Дякую за інформацію,бо я думав восени вийде...

Віктор 
Відео Гуртом - субтитрування
Відео Гуртом - субтитрування


З нами з: 09.01.10
Востаннє: 07.12.16
Повідомлень: 8663

2015-01-05 00:06  
DеLight написано:
Гобіт: Несподівана

Після двокрапки, не власні назви пишуться з малої) це британці та американці пишуть з великої.

DеLight 
Відео Гуртом - фільмокрай
Відео Гуртом - фільмокрай


З нами з: 24.08.11
Востаннє: 17.11.16
Повідомлень: 664

2015-01-05 18:48  
Віктор написано:
Після двокрапки, не власні назви пишуться з малої) це британці та американці пишуть з великої.

Дякую. Будемо писати після крапки)

sexton 
Новенький


З нами з: 22.07.10
Востаннє: 27.11.16
Повідомлень: 4

2015-01-11 13:54  
Дуже дякую за зроблену роботу і за реліз.

Я так розумію, що українська доріжка була запозичена з театральної версії...
Розширена з поним українським переводом не видавалася???

DеLight 
Відео Гуртом - фільмокрай
Відео Гуртом - фільмокрай


З нами з: 24.08.11
Востаннє: 17.11.16
Повідомлень: 664

2015-01-11 14:24  
sexton написано:
Я так розумію, що українська доріжка була запозичена з театральної версії
Так, з театралки.
sexton написано:
Розширена з поним українським переводом не видавалася?
Ні.
xytor 
Новенький


З нами з: 17.11.14
Востаннє: 07.12.16
Повідомлень: 6

2015-04-03 12:15  
а в 1080р немає?
DеLight 
Відео Гуртом - фільмокрай
Відео Гуртом - фільмокрай


З нами з: 24.08.11
Востаннє: 17.11.16
Повідомлень: 664

2015-04-03 22:31  
xytor написано:
а в 1080р немає?

Remux 1080p http://toloka.to/t56331
І користуйтесь пошуком в правому верхньому куті сайту. Вводите "The Hobbit" і переглядаєте, чи є потрібний формат для Вас.

Оповідач 
Поважний учасник


З нами з: 13.03.11
Востаннє: 08.12.16
Повідомлень: 196

2015-04-30 19:31  
Доброго дня
Хтось володіє інформацією коли буде третя частина в режисерській версії ?

DеLight 
Відео Гуртом - фільмокрай
Відео Гуртом - фільмокрай


З нами з: 24.08.11
Востаннє: 17.11.16
Повідомлень: 664

2015-04-30 20:25  
Оповідач написано:
коли буде третя частина в режисерській версії ?

Після літа, осінь (середина осені) http://www.blu-ray.com/movies/The-Hobbit-The-Battle-of-the-Five-Armies-3D-Blu-ray/123354/

Оповідач 
Поважний учасник


З нами з: 13.03.11
Востаннє: 08.12.16
Повідомлень: 196

2015-05-02 08:05  
Довго ще...
Дякую за інформацію

GhostOfMadness 
Новенький


З нами з: 07.12.13
Востаннє: 07.12.16
Повідомлень: 1

2015-09-24 11:21  
Як називається стиль субтитрів, що на першому скріншоті?
Морж 
Частий відвідувач


З нами з: 23.01.09
Востаннє: 04.12.16
Повідомлень: 31

2015-09-26 10:27  
GhostOfMadness
Стиль не знаю, але шрифт Comic Sans Wide grin

Оповідач 
Поважний учасник


З нами з: 13.03.11
Востаннє: 08.12.16
Повідомлень: 196

2015-12-19 13:49  
Ніхто не знає коли режисерка третьої частини ?
DеLight 
Відео Гуртом - фільмокрай
Відео Гуртом - фільмокрай


З нами з: 24.08.11
Востаннє: 17.11.16
Повідомлень: 664

2015-12-27 17:11  
Оновлено: додано заключну частину.


Для тих, у кого були завантажені попередні дві частини: завантажте новий торент файл, змініть назву папки на The Hobbit. The Motion Picture Trilogy [Extended Edition] (2012, 2013, 2014) 720p [ukr, eng] [Hurtom] , і тоді запускайте новий торент у µTorrent. Програма автоматично перевірить попередні два контейнери і довантажить третю частину.

EvGaS 
Відео Гуртом - підтримка та поширення
Відео Гуртом - підтримка та поширення


З нами з: 27.02.12
Востаннє: 08.12.16
Повідомлень: 2128

2016-01-02 10:20  
Додайте в шапку:

Код:
[center][url=http://toloka.to/t56331][size=24]-=|-=|Оригінал Remux|=-|=-[/size][/url][/center]
[center][url=http://toloka.to/t70846][size=24]-=|Реліз 720p-mini|=-[/size][/url][/center]

Izendel 
Новенький


З нами з: 22.11.09
Востаннє: 07.12.16
Повідомлень: 4

2016-01-15 10:57  
Панове, а чи є десь аналогічна збірка розширених версій Гобіта, проте у 1080p? Дякую!
DеLight 
Відео Гуртом - фільмокрай
Відео Гуртом - фільмокрай


З нами з: 24.08.11
Востаннє: 17.11.16
Повідомлень: 664

2016-01-15 11:33  
Izendel 
Новенький


З нами з: 22.11.09
Востаннє: 07.12.16
Повідомлень: 4

2016-01-15 12:38  
DеLight
Дякую! А BD-RIP такий з меншою вагою існує в природі?

EvGaS 
Відео Гуртом - підтримка та поширення
Відео Гуртом - підтримка та поширення


З нами з: 27.02.12
Востаннє: 08.12.16
Повідомлень: 2128

2016-01-15 12:56  
Izendel написано:
Дякую! А BD-RIP такий з меншою вагою існує в природі?

Ні - тільки ті 3 що в шапці.

UARAP 
VIP


З нами з: 10.05.08
Востаннє: 07.12.16
Повідомлень: 304

2016-05-02 15:52  
Дайте, будь ласка, швидкості, ато щось зовсім не качає.
desty 
Новенький


З нами з: 24.10.13
Востаннє: 20.11.16
Повідомлень: 3

2016-08-15 20:45  
Дякую за реліз. На телевізорі Самсунг субтитри не йдуть.
don pedro 
Попереджень: 1
Попереджень: 1 


З нами з: 29.06.11
Востаннє: 08.12.16
Повідомлень: 8761

2016-08-15 20:49  
Навіть не знаю. Склалось враження, що Джексон (чомусь) викинув з театралки третьої частини усі кращі бойові сцени -гном'ячу кавалерію на козерогах, колісниці, більшість сцен з тролями, і т. д. З поганого - безглузда сцена битви між ельфами і гномами Даїна, якої і близько не було у книзі. Загалом, можна було показати повну версію у кінотеатрі, адже ще довшого "Вовка з Волл-стріт" показали повністю. В цілому, задоволений режисеркою третьої частини "Гобіта".
Ваш часовий пояс: GMT + 2 Години

Нова тема   Відповісти