Завантажити та скачати торренти українською


Я, знову я та Ірен / Me, Myself & Irene (2000) 720p Ukr/Eng | Sub Eng

Нові коментарі

Нова тема   Відповісти
Автор Повідомлення
Anonymous 







2015-01-01 12:32  
Я, знову я та Ірен / Me, Myself & Irene (2000) 720p Ukr/Eng | Sub Eng



Оригінальний постер



Жанр: комедія
Країна: США



Кінокомпанія: Twentieth Century Fox Film Corporation, Conundrum Entertainment
Режисер: Пітер Фарреллі / Peter Farrelly, Боббі Фарреллі / Bobby Farrelly
Актори: Джим Керрі / Jim Carrey, Рене Зеллвеґер / Renée Zellweger, Ентоні Андерсон / Anthony Anderson, Кріс Купер / Chris Cooper, Монго Браунлі / Mongo Brownlee, Джерод Міксон / Jerod Mixon, Майкл Боуман / Michael Bowman, Річард Дженкінс / Richard Jenkins, Роберт Форстер / Robert Forster та інші

Сюжет:
Чарлі добрий і чуйний патрульний поліцейський. Але біда - він страждає роздвоєнням особи. Коли хтось намагається натиснути на нього, з'являється Хенк - друге «Я» Чарлі. Це грубий, жорстокий, агресивний і невихований тип, любитель випивки і грубого слова.
Життя Чарлі перетворюється на повний кошмар, бо Хенк завжди з'являється не вчасно, і постійно псує йому життя. Тільки в одному їх думки співпадають - вони обидва закохуються в Ірен, але кого з них вибере капризна красуня?


Рейтинг MPAA: R - особам до 17 років обов'язкова присутність батьків або дорослого опікуна
Вікова категорія: 16+

Тривалість: 01:56:34
Якість: 720p
Відео:
кодек:
розмір кадру: 1280x692
бітрейт: 6118 кбіт/с [crf=18]

Аудіо # 1:
мова: українська
переклад: двоголосий закадровий
ролі озвучили: Анатолій Зіновенко та Людмила Ардельян
кодек: 2.0
бітрейт: 192 кбіт/с

Аудіо # 2:
мова: англійська
переклад: оригінал
кодек: 5.1
бітрейт: 1509 кбіт/с

Аудіо # 3:
мова: англійська
переклад: коментарі режисерів
кодек: 2.0
бітрейт: 224 кбіт/с

Субтитри:
мова: англійська
тип: програмні (м'які)
формат: *.srt
MediaInfo
Код:
General
Unique ID                                : 204535193488234107154077427541464494383 (0x99E00B9E27A986AA8087C346B9DAB12F)
Complete name                            : Me, Myself & Irene (2000) [Ukr,Eng sub.Eng] 720p [Hurtom & HDClub].mkv
Format                                   : Matroska
Format version                           : Version 4 / Version 2
File size                                : 6.68 GiB
Duration                                 : 1h 56mn
Overall bit rate                         : 8 207 Kbps
Movie name                               : Я, знову я та Ірен / Me, Myself & Irene (2000)  [Ukr,Eng sub.Eng] 720p [Hurtom & HDClub]
Encoded date                             : UTC 2014-12-31 14:37:37
Writing application                      : mkvmerge v7.4.0 ('Circles') 64bit built on Dec 12 2014 12:19:56
Writing library                          : libebml v1.3.0 + libmatroska v1.4.1
DURATION                                 : 01:56:01.795000000
NUMBER_OF_FRAMES                         : 1517
NUMBER_OF_BYTES                          : 61643
_STATISTICS_WRITING_APP                  : mkvmerge v7.4.0 ('Circles') 64bit built on Dec 12 2014 12:19:56
_STATISTICS_WRITING_DATE_UTC             : 2014-12-31 14:37:37
_STATISTICS_TAGS                         : BPS DURATION NUMBER_OF_FRAMES NUMBER_OF_BYTES

Video
ID                                       : 1
Format                                   : AVC
Format/Info                              : Advanced Video Codec
Format profile                           : [email protected]
Format settings, CABAC                   : Yes
Format settings, ReFrames                : 8 frames
Codec ID                                 : V_MPEG4/ISO/AVC
Duration                                 : 1h 56mn
Bit rate                                 : 6 118 Kbps
Width                                    : 1 280 pixels
Height                                   : 692 pixels
Display aspect ratio                     : 1.85:1
Frame rate mode                          : Constant
Frame rate                               : 23.976 fps
Color space                              : YUV
Chroma subsampling                       : 4:2:0
Bit depth                                : 8 bits
Scan type                                : Progressive
Bits/(Pixel*Frame)                       : 0.288
Stream size                              : 4.98 GiB (75%)
Title                                    : Я, знову я та Ірен / Me, Myself & Irene / Я, снова я и Ирэн (2000) 720p [HDCLUB-miscalin]
Writing library                          : core 129 r2230 1cffe9f
Encoding settings                        : cabac=1 / ref=8 / deblock=1:-3:-3 / analyse=0x3:0x113 / me=umh / subme=9 / psy=1 / psy_rd=1.00:0.00 / mixed_ref=1 / me_range=32 / chroma_me=1 / trellis=1 / 8x8dct=1 / cqm=0 / deadzone=21,11 / fast_pskip=0 / chroma_qp_offset=-2 / threads=6 / lookahead_threads=1 / sliced_threads=0 / nr=0 / decimate=1 / interlaced=0 / bluray_compat=0 / constrained_intra=0 / bframes=10 / b_pyramid=2 / b_adapt=1 / b_bias=0 / direct=1 / weightb=1 / open_gop=0 / weightp=2 / keyint=240 / keyint_min=23 / scenecut=40 / intra_refresh=0 / rc=crf / mbtree=0 / crf=18.0 / qcomp=0.60 / qpmin=10 / qpmax=51 / qpstep=4 / ip_ratio=1.40 / pb_ratio=1.30 / aq=1:0.80
Language                                 : English
Default                                  : Yes
Forced                                   : No
DURATION                                 : 01:56:33.987000000
NUMBER_OF_FRAMES                         : 167688
NUMBER_OF_BYTES                          : 5489988526
_STATISTICS_WRITING_APP                  : mkvmerge v7.4.0 ('Circles') 64bit built on Dec 12 2014 12:19:56
_STATISTICS_WRITING_DATE_UTC             : 2014-12-31 14:37:37
_STATISTICS_TAGS                         : BPS DURATION NUMBER_OF_FRAMES NUMBER_OF_BYTES

Audio #1
ID                                       : 2
Format                                   : AC-3
Format/Info                              : Audio Coding 3
Mode extension                           : CM (complete main)
Format settings, Endianness              : Big
Codec ID                                 : A_AC3
Duration                                 : 1h 56mn
Bit rate mode                            : Constant
Bit rate                                 : 192 Kbps
Channel(s)                               : 2 channels
Channel positions                        : Front: L R
Sampling rate                            : 48.0 KHz
Bit depth                                : 16 bits
Compression mode                         : Lossy
Stream size                              : 160 MiB (2%)
Title                                    : DVO [Novyj] 2.0 192 kbps [Hurtom-dvorsky]
Language                                 : Ukrainian
Default                                  : Yes
Forced                                   : No

Audio #2
ID                                       : 3
Format                                   :
Format/Info                              : Digital Theater Systems
Mode                                     : 16
Format settings, Endianness              : Big
Codec ID                                 : A_DTS
Duration                                 : 1h 56mn
Bit rate mode                            : Constant
Bit rate                                 : 1 509 Kbps
Channel(s)                               : 6 channels
Channel positions                        : Front: L C R, Side: L R, LFE
Sampling rate                            : 48.0 KHz
Bit depth                                : 24 bits
Compression mode                         : Lossy
Stream size                              : 1.23 GiB (18%)
Title                                    : Original 5.1 1509 kbps
Language                                 : English
Default                                  : No
Forced                                   : No

Audio #3
ID                                       : 4
Format                                   : AC-3
Format/Info                              : Audio Coding 3
Mode extension                           : CM (complete main)
Format settings, Endianness              : Big
Codec ID                                 : A_AC3
Duration                                 : 1h 56mn
Bit rate mode                            : Constant
Bit rate                                 : 224 Kbps
Channel(s)                               : 2 channels
Channel positions                        : Front: L R
Sampling rate                            : 48.0 KHz
Bit depth                                : 16 bits
Compression mode                         : Lossy
Stream size                              : 187 MiB (3%)
Title                                    : Director's Commentary
Language                                 : English
Default                                  : No
Forced                                   : No

Text
ID                                       : 5
Format                                   : UTF-8
Codec ID                                 : S_TEXT/UTF8
Codec ID/Info                            : UTF-8 Plain Text
Language                                 : English
Default                                  : No
Forced                                   : No
Скріншоти 16+




Джерела та подяки: &
ріп відео, оригінальні звук та субтитри - miscalin (HDClub); українська доріжка - dvorsky - запис з ТБ та зведення; українізований постер - Musketeer; фільмографії акторів та інформація про озвучення - Віктор (всі - Гуртом).


ЗАЛИШАЙТЕСЬ ЯКОМОГА ДОВШЕ НА РОЗДАЧІ!

СКАЧАВ САМ - ДАЙ СКАЧАТИ ІНШИМ


Срібний реліз (на рейтинг впливає 50% завантаженого)
 Трекер:    Зареєстрований   

Завантажити / скачати фільм українською



відео для новачків



 Зареєстрований:   2015-01-01 15:07
 Розмір:   6.68 GB 
 Оцінка фільму:   6.1/10 (Голосів: 24)
   
Інші релізи
   Я, знову я та Ірен / Me, Myself & Irene (2000) Ukr/Eng LIONN  6 / 0   1.77 GB   2010-01-11 03:18 
   Я, знову я та Ірен / Me, Myself & Irene (2000) dvorsky  2 / 0   1.37 GB   2008-09-26 10:58 
don pedro 
Попереджень: 1
Попереджень: 1 


З нами з: 29.06.11
Востаннє: 10.12.16
Повідомлень: 8774

2015-01-01 15:26  
Шалений (в хорошому сенсі цього слова) фільм. Рене Зельвегер тут просто чудова.
Ваш часовий пояс: GMT + 2 Години

Нова тема   Відповісти