Завантажити та скачати торренти українською


Біллі Елліот / Billy Elliot (2000) 720p Ukr/Eng | Sub Multi

Нові коментарі

Нова тема   Відповісти
Автор Повідомлення
Anonymous 







2014-12-29 16:24  
Біллі Елліот / Billy Elliot (2000) 720p Ukr/Eng | Sub Multi



Альтернативний постер



Жанр: комедія, драма, музичний
Країна: Велика Британія, Франція



Кінокомпанія: Arts Council of England, BBC Films, StudioCanal, Tiger Aspect Productions, WT2 Productions, Working Title Films
Режисер: Стівен Долдрі / Stephen Daldry
Актори: Джимі Белл / Jamie Bell, Джин Гайвуд / Jean Heywood, Джимі Дрейвен / Jamie Draven, Ґарі Левіс / Gary Lewis, Стюарт Веллс / Stuart Wells, Майк Елліот / Mike Elliot, Біллі Фейн / Billy Fane, Ніколя Блеквелл / Nicola Blackwell, Джулі Валтерс / Julie Walters, Керол Маꥳґан / Carol McGuigan та інші

Сюжет:
11-річний Біллі Елліот син звичайного шахтаря. В очах своєї родини - батька і брата - він обов'язково повинен стати боксером. Але у маленького Біллі душа до спорту не лежить, до того ж у нього нічого і не виходить. Одного разу він бачить, як група дівчат займається балетом і розуміє, що більш за все йому подобаються танці. Але як переконати батька повірити в настільки незвичайне для хлопця хобі?


Тривалість: 01:50:49
Якість: 720p
Відео:
кодек:
розмір кадру: 1280x694
бітрейт: 10,6 Мбіт/с

Аудіо # 1:
мова: українська
переклад: багатоголосий закадровий
кодек: 2.0
бітрейт: 192 кбіт/с
Інформація про озвучення
Ролі озвучили: Катерина Буцька, Анатолій Зіновенко, Андрій Федінчик і Ніна Касторф

Фільм перекладено і озвучено на студії телеканалу Україна
Аудіо # 2:
мова: англійська
переклад: оригінал
кодек: 5.1
бітрейт: 1509 кбіт/с

Субтитри #1-4:
мова: англійська, французька, німецька, італійська
тип: програмні (м'які)
формат: *.srt
MediaInfo
Код:
General
Unique ID                   : 173478294908163698576888610645372265761 (0x8282B44C1E85A14B8772E53C094B6521)
Complete name               : Billy Elliot (2000) [Ukr,Eng sub.Multi] 720p [Hurtom & HDClub].mkv
Format                      : Matroska
Format version              : Version 4 / Version 2
File size                   : 9.67 GiB
Duration                    : 1h 50mn
Overall bit rate            : 12.5 Mbps
Movie name                  : Біллі Елліот / Billy Elliot (2000) [Ukr,Eng sub.Multi] 720p [Hurtom & HDClub]
Encoded date                : UTC 2014-12-31 13:31:57
Writing application         : mkvmerge v7.4.0 ('Circles') 64bit built on Dec 12 2014 12:19:56
Writing library             : libebml v1.3.0 + libmatroska v1.4.1
DURATION                    : 01:49:42.075000000
NUMBER_OF_FRAMES            : 882
NUMBER_OF_BYTES             : 26917
_STATISTICS_WRITING_APP     : mkvmerge v7.4.0 ('Circles') 64bit built on Dec 12 2014 12:19:56
_STATISTICS_WRITING_DATE_UT : 2014-12-31 13:31:57
_STATISTICS_TAGS            : BPS DURATION NUMBER_OF_FRAMES NUMBER_OF_BYTES

Video
ID                          : 1
Format                      : AVC
Format/Info                 : Advanced Video Codec
Format profile              : [email protected]
Format settings, CABAC      : Yes
Format settings, ReFrames   : 9 frames
Codec ID                    : V_MPEG4/ISO/AVC
Duration                    : 1h 50mn
Bit rate                    : 10.5 Mbps
Width                       : 1 280 pixels
Height                      : 694 pixels
Display aspect ratio        : 1.85:1
Frame rate mode             : Constant
Frame rate                  : 23.976 fps
Color space                 : YUV
Chroma subsampling          : 4:2:0
Bit depth                   : 8 bits
Scan type                   : Progressive
Bits/(Pixel*Frame)          : 0.495
Stream size                 : 8.16 GiB (84%)
Title                       : Біллі Елліот / Billy Elliot / Билли Эллиот (2000) 720p [EbP]
Writing library             : core 116 r2019 9cc407d
Encoding settings           : cabac=1 / ref=9 / deblock=1:-3:-3 / analyse=0x3:0x133 / me=umh / subme=9 / psy=1 / psy_rd=0.80:0.00 / mixed_ref=1 / me_range=18 / chroma_me=1 / trellis=2 / 8x8dct=1 / cqm=0 / deadzone=21,11 / fast_pskip=0 / chroma_qp_offset=-2 / threads=12 / sliced_threads=0 / nr=0 / decimate=0 / interlaced=0 / bluray_compat=0 / constrained_intra=0 / bframes=7 / b_pyramid=2 / b_adapt=2 / b_bias=0 / direct=3 / weightb=1 / open_gop=0 / weightp=2 / keyint=250 / keyint_min=23 / scenecut=40 / intra_refresh=0 / rc=crf / mbtree=0 / crf=16.8 / qcomp=0.80 / qpmin=10 / qpmax=51 / qpstep=4 / ip_ratio=1.40 / pb_ratio=1.30 / aq=1:0.90
Language                    : English
Default                     : Yes
Forced                      : No
DURATION                    : 01:50:49.602000000
NUMBER_OF_FRAMES            : 159431
NUMBER_OF_BYTES             : 8962043469
_STATISTICS_WRITING_APP     : mkvmerge v7.4.0 ('Circles') 64bit built on Dec 12 2014 12:19:56
_STATISTICS_WRITING_DATE_UT : 2014-12-31 13:31:57
_STATISTICS_TAGS            : BPS DURATION NUMBER_OF_FRAMES NUMBER_OF_BYTES

Audio #1
ID                          : 2
Format                      : AC-3
Format/Info                 : Audio Coding 3
Mode extension              : CM (complete main)
Format settings, Endianness : Big
Codec ID                    : A_AC3
Duration                    : 1h 50mn
Bit rate mode               : Constant
Bit rate                    : 192 Kbps
Channel(s)                  : 2 channels
Channel positions           : Front: L R
Sampling rate               : 48.0 KHz
Bit depth                   : 16 bits
Compression mode            : Lossy
Stream size                 : 152 MiB (2%)
Title                       : MVO [TRK Ukraina, NLO.tv] 2.0 192 kbps [Hurtom-karvai0]
Language                    : Ukrainian
Default                     : Yes
Forced                      : No

Audio #2
ID                          : 3
Format                      :
Format/Info                 : Digital Theater Systems
Mode                        : 16
Format settings, Endianness : Big
Codec ID                    : A_DTS
Duration                    : 1h 50mn
Bit rate mode               : Constant
Bit rate                    : 1 509 Kbps
Channel(s)                  : 6 channels
Channel positions           : Front: L C R, Side: L R, LFE
Sampling rate               : 48.0 KHz
Bit depth                   : 24 bits
Compression mode            : Lossy
Stream size                 : 1.17 GiB (12%)
Title                       : Original 5.1 1509 kbps
Language                    : English
Default                     : No
Forced                      : No

Text #1
ID                          : 4
Format                      : UTF-8
Codec ID                    : S_TEXT/UTF8
Codec ID/Info               : UTF-8 Plain Text
Language                    : English
Default                     : No
Forced                      : No

Text #2
ID                          : 5
Format                      : UTF-8
Codec ID                    : S_TEXT/UTF8
Codec ID/Info               : UTF-8 Plain Text
Language                    : French
Default                     : No
Forced                      : No

Text #3
ID                          : 6
Format                      : UTF-8
Codec ID                    : S_TEXT/UTF8
Codec ID/Info               : UTF-8 Plain Text
Language                    : German
Default                     : No
Forced                      : No

Text #4
ID                          : 7
Format                      : UTF-8
Codec ID                    : S_TEXT/UTF8
Codec ID/Info               : UTF-8 Plain Text
Language                    : Italian
Default                     : No
Forced                      : No




Джерела та подяки: &
ріп відео, оригінальні звук та субтитри - EbP (HDbits), madoff (HDClub); українська доріжка - karvai0 - зведення, xslim, sando7 - запис з ТБ (всі - Гуртом).


ЗАЛИШАЙТЕСЬ ЯКОМОГА ДОВШЕ НА РОЗДАЧІ!

СКАЧАВ САМ - ДАЙ СКАЧАТИ ІНШИМ


Срібний реліз (на рейтинг впливає 50% завантаженого)
 Трекер:    Зареєстрований   

Завантажити / скачати фільм українською



відео для новачків



 Зареєстрований:   2014-12-31 18:39
 Розмір:   9.67 GB 
 Оцінка фільму:   4.6/10 (Голосів: 17)
   
Інші релізи
   Біллі Елліот / Billy Elliot (2000) Ukr/Eng | Sub Eng karvai0  3 / 4   1.74 GB   2013-07-02 12:33 
ArteMiY 
Свій


З нами з: 08.07.08
Востаннє: 06.12.16
Повідомлень: 71

2014-12-30 15:54  
мій улюбленний фільм
Ваш часовий пояс: GMT + 2 Години

Нова тема   Відповісти