Завантажити та скачати торренти українською


Промовисті ролі/Speaking parts (1989) HD Eng | sub Ukr

Нові коментарі

Нова тема   Відповісти
Автор Повідомлення
Час_настал 
VIP


З нами з: 01.07.10
Востаннє: 04.12.16
Повідомлень: 277

2014-12-28 18:43  
Промовисті ролі/Speaking parts (1989) HD Eng | sub Ukr

Промовисті ролі/Speaking parts (1989) HD Eng | sub Ukr


Жанр: Драма, Артхаус
Країна: Канада



Кінокомпанія: Zeitgeist Films
Режисер: Атом Еґоян
Актори: Майкл МакМанус, Арсіні Ханджіян, Ґабріелль Роуз, Тоні Нарді та інші

Сюжет:
Історія молодого актора який прагне віднайти себе у цьому житті. Дуже гарна, чуттєва стрічка. Особисто раджу для перегляду разом з вашою коханою людиною.

P.S. Якщо хтось забажає підтримати фінансово перекладача (тобто мене), то ви знаєте де мене знайти. Пишіть у приват.


Тривалість: 1:31:00
Якість:
Відео:
кодек:
розмір кадру: 1280 х 720
бітрейт: 4894 кб/с

Аудіо:
мова: англійська
переклад: оригінал
кодек: 5.1
бітрейт: 224 кб/с

Субтитри:
мова: українська
тип: програмні (м'які)
формат: *.srt
Скріншоти


Mediainfo
Промовисті ролі.mkv
Format : Matroska
Format version : Version 2
File size : 3.27 GiB
Duration : 1h 31mn
Overall bit rate : 5 117 Kbps
Encoded date : UTC 2013-07-09 21:09:30
Writing application : mkvmerge v6.2.0 ('Promised Land') built on Apr 28 2013 12:22:01
Writing library : libebml v1.3.0 + libmatroska v1.4.0

Video
ID : 1
Format : AVC
Format/Info : Advanced Video Codec
Format profile : [email protected]
Format settings, CABAC : Yes
Format settings, ReFrames : 5 frames
Codec ID : V_MPEG4/ISO/AVC
Duration : 1h 31mn
Bit rate : 4 894 Kbps
Width : 1 280 pixels
Height : 720 pixels
Display aspect ratio : 16:9
Frame rate mode : Constant
Frame rate : 23.976 fps
Color space : YUV
Chroma subsampling : 4:2:0
Bit depth : 8 bits
Scan type : Progressive
Bits/(Pixel*Frame) : 0.221
Stream size : 3.07 GiB (94%)
Writing library : core 133 r2334 a3ac64b
Encoding settings : cabac=1 / ref=5 / deblock=1:0:0 / analyse=0x3:0x133 / me=umh / subme=7 / psy=1 / psy_rd=1.00:0.00 / mixed_ref=1 / me_range=16 / chroma_me=1 / trellis=1 / 8x8dct=1 / cqm=0 / deadzone=21,11 / fast_pskip=0 / chroma_qp_offset=-2 / threads=12 / lookahead_threads=2 / sliced_threads=0 / nr=0 / decimate=1 / interlaced=0 / bluray_compat=0 / constrained_intra=0 / bframes=3 / b_pyramid=2 / b_adapt=2 / b_bias=0 / direct=3 / weightb=1 / open_gop=0 / weightp=2 / keyint=250 / keyint_min=23 / scenecut=40 / intra_refresh=0 / rc_lookahead=50 / rc=2pass / mbtree=1 / bitrate=4894 / ratetol=1.0 / qcomp=0.60 / qpmin=0 / qpmax=69 / qpstep=4 / cplxblur=20.0 / qblur=0.5 / ip_ratio=1.40 / aq=1:1.00
Language : English
Default : Yes
Forced : No

Audio
ID : 2
Format : AC-3
Format/Info : Audio Coding 3
Mode extension : CM (complete main)
Format settings, Endianness : Big
Codec ID : A_AC3
Duration : 1h 31mn
Bit rate mode : Constant
Bit rate : 224 Kbps
Channel(s) : 2 channels
Channel positions : Front: L R
Sampling rate : 48.0 KHz
Bit depth : 16 bits
Compression mode : Lossy
Stream size : 147 MiB (4%)
Language : English
Default : Yes
Forced : No

Menu
00:00:00.000 : en:00:00:00.000
00:08:05.652 : en:00:08:05.652
00:16:13.014 : en:00:16:13.014
00:24:25.214 : en:00:24:25.214
00:33:38.934 : en:00:33:38.934
00:43:13.633 : en:00:43:13.633
00:51:48.063 : en:00:51:48.063
01:02:49.933 : en:01:02:49.933
01:12:00.608 : en:01:12:00.608
01:17:53.961 : en:01:17:53.961
01:22:03.877 : en:01:22:03.877
01:29:40.917 : en:01:29:40.917
Джерело:
Особиста оцінка: 10 - без зайвих вагань рекомендую всім!


Золотий реліз (завантажене не впливає на рейтинг)
 Трекер:    Зареєстрований   

Завантажити / скачати фільм українською



відео для новачків



 Зареєстрований:   2014-12-28 18:43
 Розмір:   3.27 GB 
 Оцінка фільму:   9.3/10 (Голосів: 3)
   
Час_настал 
VIP


З нами з: 01.07.10
Востаннє: 04.12.16
Повідомлень: 277

2014-12-28 18:55  
Приємного усім перегляду.
Ваш часовий пояс: GMT + 2 Години

Нова тема   Відповісти