Завантажити та скачати торренти українською


Мандрівний Кеншін / Rurouni Kenshin (2012) 720p Jap | Sub Ukr

Нові коментарі

Нова тема   Відповісти
Автор Повідомлення
ksanka45 
Свій


З нами з: 04.06.11
Востаннє: 08.12.16
Повідомлень: 129

2014-12-27 14:58  
Мандрівний Кеншін / Rurouni Kenshin (2012) 720p Jap | Sub Ukr

Мандрівний Кеншін / Rurouni Kenshin (2012) 720p Jap | Sub Ukr


Жанр: історичний, екшн, драма
Країна: Японія



Кінокомпанія: Warner Bros.
Режисер: Кейші Оотомо
Актори: Сато Такеру, Каґава Теруюкі, Емі Такеї, Йоске Еґучі, Мунетака Аокі, Юу Аой

Сюжет:
Знято за однойменною манґою Нобухіро Вацукі.

В епоху смутку та розбрату Бакумацу Хімура Кеншін був найлютішим ворогом і найстрашнішим супротивником послідовників шьоґунату. За численні замовлені вбивства і невразливість в бою його прозвали Хітокірі Баттосаєм — наймайстернішим серед мечників-вбивць. Та коли настала нова ера, ера відродження Японії, він склав зброю і поклявся більше ніколи не вбивати, щоб стати звичайним блукачем і допомагати простим людям, за мирне життя яких він боровся.
Минає 10 років, і дорога приводить Кеншіна до Токіо, де, на його подив, лютує кровожерливий "Хітокірі Баттосай". У вирі подій він знаходить вірних друзів, кохану і... спокій домашнього тепла, невластивий його блуканням. Однак минуле дає про себе знати: щоб захистити дорогих йому людей, Кеншін має не втратити себе і не вбити знову...


Тривалість: 02:14:26
Якість: 720p
Відео:
кодек:
розмір кадру: 1280x536
бітрейт: 4 005 кб/с

Аудіо:
мова: японська
переклад: оригінал
кодек: 5.1
бітрейт: 640 кб/с

Субтитри:
мова: українська
тип: програмні (м’які)
формат: *.ass
MediaInfo
Format : Matroska
Format version : Version 4 / Version 2
File size : 4.36 GiB
Duration : 2h 14mn
Overall bit rate : 4 643 Kbps
Encoded date : UTC 2014-12-26 15:07:19
Writing application : mkvmerge v7.4.0 ('Circles') 64bit built on Dec 12 2014 12:19:56
Writing library : libebml v1.3.0 + libmatroska v1.4.1
DURATION : 02:09:35.060000000
NUMBER_OF_FRAMES : 1039
NUMBER_OF_BYTES : 66731
_STATISTICS_WRITING_APP : mkvmerge v7.4.0 ('Circles') 64bit built on Dec 12 2014 12:19:56
_STATISTICS_WRITING_DATE_UTC : 2014-12-26 15:07:19
_STATISTICS_TAGS : BPS DURATION NUMBER_OF_FRAMES NUMBER_OF_BYTES

Video
ID : 1
Format : AVC
Format/Info : Advanced Video Codec
Format profile : [email protected]
Format settings, CABAC : Yes
Format settings, ReFrames : 12 frames
Codec ID : V_MPEG4/ISO/AVC
Duration : 2h 14mn
Bit rate : 4 005 Kbps
Width : 1 280 pixels
Height : 536 pixels
Display aspect ratio : 2.40:1
Frame rate mode : Constant
Frame rate : 23.976 fps
Color space : YUV
Chroma subsampling : 4:2:0
Bit depth : 8 bits
Scan type : Progressive
Bits/(Pixel*Frame) : 0.243
Stream size : 3.67 GiB (84%)
Writing library : core 125 r2208 d9d2288
Encoding settings : cabac=1 / ref=12 / deblock=1:-3:-3 / analyse=0x3:0x113 / me=umh / subme=10 / psy=1 / psy_rd=1.05:0.10 / mixed_ref=1 / me_range=48 / chroma_me=1 / trellis=2 / 8x8dct=1 / cqm=0 / deadzone=21,11 / fast_pskip=0 / chroma_qp_offset=-2 / threads=12 / lookahead_threads=2 / sliced_threads=0 / nr=0 / decimate=1 / interlaced=0 / bluray_compat=0 / constrained_intra=0 / bframes=6 / b_pyramid=2 / b_adapt=2 / b_bias=0 / direct=3 / weightb=1 / open_gop=0 / weightp=2 / keyint=250 / keyint_min=23 / scenecut=40 / intra_refresh=0 / rc_lookahead=60 / rc=2pass / mbtree=0 / bitrate=4005 / ratetol=2.0 / qcomp=0.70 / qpmin=0 / qpmax=69 / qpstep=4 / cplxblur=20.0 / qblur=0.5 / vbv_maxrate=40000 / vbv_bufsize=30000 / nal_hrd=none / ip_ratio=1.40 / pb_ratio=1.30 / aq=2:1.00
Language : English
Default : Yes
Forced : No
DURATION : 02:14:26.058000000
NUMBER_OF_FRAMES : 193392
NUMBER_OF_BYTES : 4034079324
_STATISTICS_WRITING_APP : mkvmerge v7.4.0 ('Circles') 64bit built on Dec 12 2014 12:19:56
_STATISTICS_WRITING_DATE_UTC : 2014-12-26 15:07:19
_STATISTICS_TAGS : BPS DURATION NUMBER_OF_FRAMES NUMBER_OF_BYTES
Color primaries : BT.709
Transfer characteristics : BT.709
Matrix coefficients : BT.709

Audio
ID : 2
Format : AC-3
Format/Info : Audio Coding 3
Mode extension : CM (complete main)
Format settings, Endianness : Big
Codec ID : A_AC3
Duration : 2h 14mn
Bit rate mode : Constant
Bit rate : 640 Kbps
Channel(s) : 6 channels
Channel positions : Front: L C R, Side: L R, LFE
Sampling rate : 48.0 KHz
Bit depth : 16 bits
Compression mode : Lossy
Stream size : 615 MiB (14%)
Default : Yes
Forced : No

Text
ID : 3
Format : ASS
Codec ID : S_TEXT/ASS
Codec ID/Info : Advanced Sub Station Alpha
Compression mode : Lossless
Default : Yes
Forced : No
Скріншоти


Переклад: Rosava
Редакція: MoltoBene8

Джерело: Otaku no Sekai спільно з U&A
Особиста оцінка: 10 - без зайвих вагань рекомендую всім![/url]


Золотий реліз (завантажене не впливає на рейтинг)
 Трекер:    Зареєстрований   

Завантажити / скачати фільм українською



відео для новачків



 Зареєстрований:   2014-12-27 14:58
 Розмір:   4.36 GB 
 Оцінка фільму:   9.6/10 (Голосів: 8)
   
munipet 
Поважний учасник


З нами з: 14.04.11
Востаннє: 31.07.16
Повідомлень: 227

2014-12-28 02:17  
всі будуть частини чи так одна щоб подракзнить?
ksanka45 
Свій


З нами з: 04.06.11
Востаннє: 08.12.16
Повідомлень: 129

2014-12-28 15:02  
Друга частина поки перекладається. Буде десь в перших числах січня.
boombyte 
Новенький


З нами з: 12.04.14
Востаннє: 30.11.16
Повідомлень: 16

2014-12-31 20:30  
Тільки подивився на російській.
Що ж--чекатиму на наступну частину. Дякую!

Gedet 
Відео Гуртом - субтитрування
Відео Гуртом - субтитрування


З нами з: 17.11.11
Востаннє: 06.12.16
Повідомлень: 1750

2014-12-31 21:58  
boombyte написано:
Тільки подивився на російській.

Дуже важлива інформацію. Що ще ви російською подивилися? Бажано списком.

NeetScrool 
Відео Гуртом - фільмокрай
Відео Гуртом - фільмокрай


З нами з: 10.01.13
Востаннє: 08.12.16
Повідомлень: 2219

2015-01-03 23:10  
ksanka45 написано:
кодек: 2.0

5.1

Додано через 36 секунд:

ksanka45 написано:
Буде десь в перших числах січня.

Чекаю!

Додано через 7 хвилин 50 секунд:

А 3-й фільм перекладатимете?
Rurouni Kenshin: Densetsu no Saigo-hen

ksanka45 
Свій


З нами з: 04.06.11
Востаннє: 08.12.16
Повідомлень: 129

2015-01-06 01:48  
NeetScrool написано:

А 3-й фільм перекладатимете?
Rurouni Kenshin: Densetsu no Saigo-hen


Перекладатиму обов’язково, проте питання, коли. Я ще не бачила в очі ні відео, ні ансабу до нього, тож якщо в цьому місяці не зможу перекласти, то до кінця літньої сесії навряд чи за нього братимуся. Бо на мені ще аніме і дві манґи)

ImfromUkraine 
VIP


З нами з: 18.02.12
Востаннє: 07.12.16
Повідомлень: 262

2015-01-09 00:33  
сподобався фільм, дякую
NeetScrool 
Відео Гуртом - фільмокрай
Відео Гуртом - фільмокрай


З нами з: 10.01.13
Востаннє: 08.12.16
Повідомлень: 2219

2015-01-09 19:25  
ksanka45 написано:
Буде десь в перших числах січня.

Скоро вже 10-ті числа підуть? Коли очікувати?

ksanka45 
Свій


З нами з: 04.06.11
Востаннє: 08.12.16
Повідомлень: 129

2015-01-09 23:37  
NeetScrool написано:
Скоро вже 10-ті числа підуть? Коли очікувати?

Гадаю, на вихідних. Віддала вже редактору.

Ваш часовий пояс: GMT + 2 Години

Нова тема   Відповісти