Завантажити та скачати торренти українською


Різники [Розширена версія] / Repo Men [Unrated] (2010) 720p Ukr/Eng | Sub Ukr/Eng

Нові коментарі

Нова тема   Відповісти
Автор Повідомлення
serjmetalist 
Новенький


З нами з: 16.09.12
Востаннє: 04.12.16
Повідомлень: 7

2014-12-27 10:56  
Різники [Розширена версія] / Repo Men [Unrated] (2010) 720p Ukr/Eng | Sub Ukr/Eng

Різники [Розширена версія] / Repo Men [Unrated] (2010) 720p Ukr/Eng | Sub Ukr/Eng


Жанр: екшн, кримінальний, фантастика, трилер
Країна: США, Канада



Кінокомпанія: Universal Pictures, Relativity Media, Stuber Productions
Режисер: Міґель Сапочнік / Miguel Sapochnik
Актори: Джуд Лоу / Jude Law, Форест Вітакер / Forest Whitaker, Алісі Браґа / Alice Braga, Лів Шрайбер / Liev Schreiber, Керіс Ван Гоутен / Carice van Houten, Чандлер Кентербері / Chandler Canterbury, Джо Пінґ / Joe Pingue та інші

Сюжет:
У недалекому майбутньому штучні органи будуть доступні усім і навіть в кредит. Якщо ж людина не в змозі сплатити борг, то вживаються украй жорсткі заходи. Одного разу до такого клієнта в будинок може вломитися різник, який здатний подавити будь-який опір і повинен вилучити з нього штучний орган, власність компанії Union. Ремі якраз такий - і мисливець, і жертва - він різник, і він же не може сплатити пересадку серця, а тому вимушений тікати...


Тривалість: 01:59:36
Якість:
Відео:
кодек:
розмір кадру: 1280x544
бітрейт: ~ 6133 кб/с

Аудіо # 1:
мова: українська
переклад: багатоголосий закадровий
кодек: 2.0
бітрейт: 192 кб/с

Аудіо # 2:
мова: англійська
переклад: оригінал
кодек: 5.1
бітрейт: 1510 кб/с

Субтитри:
мова: українська
тип: пререндерні
формат: *.srt

Субтитри:
мова: англійська
тип: пререндерні
формат: *.srt
MediaInfo
General
Unique ID : 214871831348142595906394233892612966990 (0xA1A6CF3624037263834614BC3B658A4E)
Complete name : F:\Video\Hurtom\Repo Men.UNRATED.2010..720p [UKR_ENG] [Hurtom] .mkv
Format : Matroska
Format version : Version 4 / Version 2
File size : 6.55 GiB
Duration : 1h 59mn
Overall bit rate : 7 838 Kbps
Encoded date : UTC 2014-12-27 08:09:14
Writing application : mkvmerge v7.4.0 ('Circles') 64bit built on Dec 12 2014 12:19:56
Writing library : libebml v1.3.0 + libmatroska v1.4.1
DURATION : 01:59:07.511000000
NUMBER_OF_FRAMES : 1232
NUMBER_OF_BYTES : 64060
_STATISTICS_WRITING_APP : mkvmerge v7.4.0 ('Circles') 64bit built on Dec 12 2014 12:19:56
_STATISTICS_WRITING_DATE_UTC : 2014-12-27 08:09:14
_STATISTICS_TAGS : BPS DURATION NUMBER_OF_FRAMES NUMBER_OF_BYTES

Video
ID : 1
Format : AVC
Format/Info : Advanced Video Codec
Format profile : [email protected]
Format settings, CABAC : Yes
Format settings, ReFrames : 8 frames
Codec ID : V_MPEG4/ISO/AVC
Duration : 1h 59mn
Bit rate : 6 133 Kbps
Width : 1 280 pixels
Height : 544 pixels
Display aspect ratio : 2.35:1
Frame rate mode : Constant
Frame rate : 23.976 fps
Color space : YUV
Chroma subsampling : 4:2:0
Bit depth : 8 bits
Scan type : Progressive
Bits/(Pixel*Frame) : 0.367
Stream size : 5.00 GiB (76%)
Title :
Writing library : core 104 r1688 0b36c6d
Encoding settings : cabac=1 / ref=9 / deblock=1:-3:-3 / analyse=0x3:0x113 / me=tesa / subme=10 / psy=1 / psy_rd=1.00:0.00 / mixed_ref=1 / me_range=64 / chroma_me=1 / trellis=2 / 8x8dct=1 / cqm=0 / deadzone=21,11 / fast_pskip=0 / chroma_qp_offset=-2 / threads=6 / sliced_threads=0 / nr=0 / decimate=1 / interlaced=0 / constrained_intra=0 / bframes=6 / b_pyramid=1 / b_adapt=2 / b_bias=0 / direct=3 / weightb=1 / open_gop=0 / weightp=2 / keyint=250 / keyint_min=23 / scenecut=40 / intra_refresh=0 / rc_lookahead=40 / rc=2pass / mbtree=1 / bitrate=6133 / ratetol=1.0 / qcomp=0.60 / qpmin=10 / qpmax=51 / qpstep=4 / cplxblur=20.0 / qblur=0.5 / ip_ratio=1.40 / aq=1:0.80
Language : English
Default : Yes
Forced : No
DURATION : 01:59:36.831000000
NUMBER_OF_FRAMES : 172072
NUMBER_OF_BYTES : 5502531392
_STATISTICS_WRITING_APP : mkvmerge v7.4.0 ('Circles') 64bit built on Dec 12 2014 12:19:56
_STATISTICS_WRITING_DATE_UTC : 2014-12-27 08:09:14
_STATISTICS_TAGS : BPS DURATION NUMBER_OF_FRAMES NUMBER_OF_BYTES

Audio #1
ID : 2
Format : AC-3
Format/Info : Audio Coding 3
Mode extension : CM (complete main)
Format settings, Endianness : Big
Codec ID : A_AC3
Duration : 1h 59mn
Bit rate mode : Constant
Bit rate : 192 Kbps
Channel(s) : 2 channels
Channel positions : Front: L R
Sampling rate : 48.0 KHz
Bit depth : 16 bits
Compression mode : Lossy
Stream size : 164 MiB (2%)
Title : Україньська 2.0
Language : Ukrainian
Default : Yes
Forced : No

Audio #2
ID : 3
Format :
Format/Info : Digital Theater Systems
Mode : 16
Format settings, Endianness : Big
Codec ID : A_DTS
Duration : 1h 59mn
Bit rate mode : Constant
Bit rate : 1 509 Kbps
Channel(s) : 6 channels
Channel positions : Front: L C R, Side: L R, LFE
Sampling rate : 48.0 KHz
Bit depth : 24 bits
Compression mode : Lossy
Stream size : 1.26 GiB (19%)
Title : English @ 5.1 @ 1510 kbps
Language : English
Default : No
Forced : No

Text #1
ID : 4
Format : UTF-8
Codec ID : S_TEXT/UTF8
Codec ID/Info : UTF-8 Plain Text
Default : Yes
Forced : No

Text #2
ID : 5
Format : UTF-8
Codec ID : S_TEXT/UTF8
Codec ID/Info : UTF-8 Plain Text
Title : English
Language : English
Default : No
Forced : No
Скріншоти:

Джерело:
Особиста оцінка: 8 - мені сподобалося


 Трекер:    Зареєстрований   

Завантажити / скачати фільм українською



відео для новачків



 Зареєстрований:   2014-12-27 11:07
 Розмір:   6.55 GB 
 Оцінка фільму:   9.8/10 (Голосів: 12)
   
Інші релізи
Ваш часовий пояс: GMT + 2 Години

Нова тема   Відповісти