Завантажити та скачати торренти українською


Зодіак [Режисерська версія] / Zodiac [Director's Cut] (2007) 720p Ukr/Eng | Sub Eng

Нові коментарі

Нова тема   Відповісти
Автор Повідомлення
Anonymous 







2014-12-26 21:53  
Зодіак [Режисерська версія] / Zodiac [Director's Cut] (2007) 720p Ukr/Eng | Sub Eng



Український та альтернитивний постери





Жанр: трилер, драма, кримінал
Країна: США



Кінокомпанія: Paramount Pictures, Warner Bros.
Режисер: Девід Фінчер / David Fincher
Актори: Джейк Джилленгаал / Jake Gyllenhaal, Марк Руффало / Mark Ruffalo, Ентоні Едвардс / Anthony Edwards, Роберт Дауні-молодший / Robert Downey Jr., Брайан Кокс / Brian Cox, Джон Керролл Лінч / John Carroll Lynch, Річмонд Аркетт / Richmond Arquette, Боб Стефенсон / Bob Stephenson, Джон Лесі / John Lacy, Клое Севіньї / Chloë Sevigny та інші

Сюжет:
Протягом майже 25 років він тримав у страху весь Сан-Франциско. Спілкуючись з владою через репортерів, він в своїх листах і шифрах жорстоко дорікав поліції в бездіяльності. "Зодіак" то пропадав на час, то з'являвся знову. Часом поліція починала сумніватися в тому, що за черговим вбивством стояв саме той, за ким вони так довго полювали. Але і почерк вбивств, і листи репортерам говорили про те, що "Зодіак" ще не відійшов від справ...


Рейтинг MPAA: R - особам до 17 років обов'язкова присутність батьків або дорослого опікуна
Вікова категорія: 16+

Тривалість: 02:42:36 [Режисерська версія] - Відмінності Театральної та Режисерської версій
Якість: 720p
Відео:
кодек:
розмір кадру: 1280x532
бітрейт: 4100 кбіт/с

Аудіо # 1:
мова: українська
переклад: багатоголосий закадровий
ролі озвучили: Джейк Джилленгаал — Дмитро Терещук, Марк Руффало - Роман Семисал, Юрій Гребельник і один жіночий голос
кодек: 5.1
бітрейт: 384 кбіт/с

Аудіо # 2:
мова: англійська
переклад: оригінал
кодек: 5.1
бітрейт: 1510 кбіт/с

Аудіо # 3:
мова: англійська
переклад: Cast's Commentary
кодек: OGG 2.0
бітрейт: 80 кбіт/с

Аудіо # 4:
мова: англійська
переклад: Crew's Commentary
кодек: OGG 2.0
бітрейт: 80 кбіт/с

Субтитри # 1:
мова: українська (форсовані, до моментів режисерської версії без перекладу, сумарно біля 5 хв.)
тип: програмні (м'які)
формат: *.srt

Субтитри #2:
мова: англійська
тип: програмні (м'які)
формат: *.srt
MediaInfo
Код:
General
Unique ID                   : 244497154994663072083841846636535358455 (0xB7F070703575F328AE361371677823F7)
Complete name               : Zodiac [DC] (2007) [Ukr,Eng sub.Eng] 720p [Hurtom].mkv
Format                      : Matroska
Format version              : Version 4 / Version 2
File size                   : 6.97 GiB
Duration                    : 2h 42mn
Overall bit rate mode       : Variable
Overall bit rate            : 6 140 Kbps
Movie name                  : Зодіак / Zodiac [Director's Cut] (2007) [Ukr,Eng sub.Eng] 720p [Hurtom]
Encoded date                : UTC 2014-12-26 10:32:41
Writing application         : mkvmerge v7.4.0 ('Circles') 64bit built on Dec 12 2014 12:19:56
Writing library             : libebml v1.3.0 + libmatroska v1.4.1
DURATION                    : 02:42:36.992000000
NUMBER_OF_FRAMES            : 304906
NUMBER_OF_BYTES             : 468335616
_STATISTICS_WRITING_APP     : mkvmerge v7.4.0 ('Circles') 64bit built on Dec 12 2014 12:19:56
_STATISTICS_WRITING_DATE_UT : 2014-12-26 10:32:41
_STATISTICS_TAGS            : BPS DURATION NUMBER_OF_FRAMES NUMBER_OF_BYTES

Video
ID                          : 1
Format                      : AVC
Format/Info                 : Advanced Video Codec
Format profile              : [email protected]
Format settings, CABAC      : Yes
Format settings, ReFrames   : 16 frames
Codec ID                    : V_MPEG4/ISO/AVC
Duration                    : 2h 42mn
Bit rate                    : 4 100 Kbps
Width                       : 1 280 pixels
Height                      : 532 pixels
Display aspect ratio        : 2.40:1
Original display aspect rat : 2.40:1
Frame rate mode             : Constant
Frame rate                  : 23.976 fps
Color space                 : YUV
Chroma subsampling          : 4:2:0
Bit depth                   : 8 bits
Scan type                   : Progressive
Bits/(Pixel*Frame)          : 0.251
Stream size                 : 4.50 GiB (65%)
Title                       : Зодіак / Zodiac / Зодиак [Director's Cut] (2007) 720p [DON]
Writing library             : core 65 r1074 9d6cc8e
Encoding settings           : cabac=1 / ref=16 / deblock=1:-3:-3 / analyse=0x3:0x133 / me=umh / subme=9 / psy_rd=1.0:0.0 / mixed_ref=1 / me_range=32 / chroma_me=1 / trellis=2 / 8x8dct=1 / cqm=0 / deadzone=21,11 / chroma_qp_offset=-2 / threads=6 / nr=0 / decimate=0 / mbaff=0 / bframes=5 / b_pyramid=1 / b_adapt=2 / b_bias=0 / direct=3 / wpredb=1 / keyint=250 / keyint_min=25 / scenecut=40(pre) / rc=2pass / bitrate=4100 / ratetol=1.0 / qcomp=0.60 / qpmin=10 / qpmax=51 / qpstep=4 / cplxblur=20.0 / qblur=0.5 / ip_ratio=1.40 / pb_ratio=1.30 / aq=1:1.00
Language                    : English
Default                     : Yes
Forced                      : No

Audio #1
ID                          : 2
Format                      : AC-3
Format/Info                 : Audio Coding 3
Mode extension              : CM (complete main)
Format settings, Endianness : Big
Codec ID                    : A_AC3
Duration                    : 2h 42mn
Bit rate mode               : Constant
Bit rate                    : 384 Kbps
Channel(s)                  : 6 channels
Channel positions           : Front: L C R, Side: L R, LFE
Sampling rate               : 48.0 KHz
Bit depth                   : 16 bits
Compression mode            : Lossy
Stream size                 : 447 MiB (6%)
Title                       : MVO [ICTV] 5.1 384 kbps [Hurtom-Romario_O]
Language                    : Ukrainian
Default                     : Yes
Forced                      : No

Audio #2
ID                          : 3
Format                      :
Format/Info                 : Digital Theater Systems
Mode                        : 16
Format settings, Endianness : Big
Codec ID                    : A_DTS
Duration                    : 2h 42mn
Bit rate mode               : Constant
Bit rate                    : 1 510 Kbps
Channel(s)                  : 6 channels
Channel positions           : Front: L C R, Side: L R, LFE
Sampling rate               : 48.0 KHz
Bit depth                   : 24 bits
Compression mode            : Lossy
Stream size                 : 1.71 GiB (25%)
Title                       : Original 5.1 1510 Kbps
Language                    : English
Default                     : No
Forced                      : No

Audio #3
ID                          : 4
Format                      : Vorbis
Format settings, Floor      : 1
Codec ID                    : A_VORBIS
Duration                    : 2h 42mn
Bit rate mode               : Variable
Bit rate                    : 80.0 Kbps
Channel(s)                  : 2 channels
Sampling rate               : 48.0 KHz
Compression mode            : Lossy
Stream size                 : 93.0 MiB (1%)
Title                       : Cast's Commentary
Writing library             : libVorbis 1.2 (UTC 2007-06-22)
Language                    : English
Default                     : No
Forced                      : No
Writing application         : Made with BeSweet v1.5b31
Encoded_Application/Url     : http://DSPguru.doom9.org

Audio #4
ID                          : 5
Format                      : Vorbis
Format settings, Floor      : 1
Codec ID                    : A_VORBIS
Duration                    : 2h 42mn
Bit rate mode               : Variable
Bit rate                    : 80.0 Kbps
Channel(s)                  : 2 channels
Sampling rate               : 48.0 KHz
Compression mode            : Lossy
Stream size                 : 93.0 MiB (1%)
Title                       : Crew's Commentary
Writing library             : libVorbis 1.2 (UTC 2007-06-22)
Language                    : English
Default                     : No
Forced                      : No
Writing application         : Made with BeSweet v1.5b31
Encoded_Application/Url     : http://DSPguru.doom9.org

Text #1
ID                          : 6
Format                      : UTF-8
Codec ID                    : S_TEXT/UTF8
Codec ID/Info               : UTF-8 Plain Text
Title                       : Forced
Language                    : Ukrainian
Default                     : Yes
Forced                      : Yes

Text #2
ID                          : 7
Format                      : UTF-8
Codec ID                    : S_TEXT/UTF8
Codec ID/Info               : UTF-8 Plain Text
Language                    : English
Default                     : No
Forced                      : No




Джерела та подяки:
ріп відео, оригінальні звук та субтитри - DON (HDbits); українська доріжка - Romario_O; фільмографії акторів - Klen-Yavir, Віктор, Neo777, інформація про озвучення - Віктор (всі - Гуртом).


ЗАЛИШАЙТЕСЬ ЯКОМОГА ДОВШЕ НА РОЗДАЧІ!

СКАЧАВ САМ - ДАЙ СКАЧАТИ ІНШИМ


 Трекер:    Зареєстрований   

Завантажити / скачати фільм українською



відео для новачків



 Зареєстрований:   2014-12-27 00:00
 Розмір:   6.97 GB 
 Оцінка фільму:   6.2/10 (Голосів: 26)
   
Інші релізи
Віктор 
Відео Гуртом - субтитрування
Відео Гуртом - субтитрування


З нами з: 09.01.10
Востаннє: 06.12.16
Повідомлень: 8663

2014-12-27 01:04  
На якомусь двд бачив українські субтитри, не підішли?
Anonymous 







2014-12-27 01:05  
не знав про них...зранку пошукаю...
Anonymous 







2014-12-27 09:06  
на двд9 від інтерфільму написано, що є. поставив на закачку, але там тривалість 02:31:11
Ваш часовий пояс: GMT + 2 Години

Нова тема   Відповісти