Завантажити та скачати торренти українською


Супер Вуйки - Зі Святого Саду (2014) [FLAC] | Rock

Нові коментарі

Нова тема   Відповісти
Останній раз роздавалося lviv65 (2016-12-04)
Автор Повідомлення
hvvi 
Свій


З нами з: 25.02.10
Востаннє: 03.12.16
Повідомлень: 74

2014-12-26 01:40  
Супер Вуйки - Зі Святого Саду (2014) [FLAC] | Rock



Стиль: Rock Rock'n'Roll
Країна, місто: Україна, Львів
Видавець: Студія «Muzrecords»
Виконавці:
В'ячеслав «Назарет» Сінчук — вокал
Ілько Лемко (Семенов) — гітара
Вадим «Краптик» Глущенко — клавішні
Володимир «Джубокс» Михалик — бас-гітара
В'ячеслав Василенко — барабани
Михайло Кравець — звукорежисура, гітара, бас
Пісні:
    01 - Червона конюшина
    02 - Молодий
    03 - Де ж ти була
    04 - Твоя Україна
    05 - 21-th Century Schizoid Ukraine
    06 - Вибори
    07 - Час іти
    08 - Мене виганяють із дому
    09 - Arms of Love
    10 - Hot Shock ’79
    11 - Пливу
    12 - Боже, великий, єдиний

Тривалість: 00:54:37
Мова: українська, англійська (9), відсутня (5,12)
Аудіо-кодек: FLAC
Бітрейт: ~950 кб/с
Джерело: власний ріп
Додаткова інформація:
Супер Вуйки (Вуйки) — культовий львівський рок-гурт, основоположники україномовного рок-н-ролу[1]. Були популярними в середовищі хіпі.

«Супер Вуйки зі Святого Саду» — дебютний альбом українського рок-гурту Супер Вуйки. Вийшов 13 листопада 2014 року, записаний на студії «Muzrecords» (Львів). Музичний стиль хард-рок з елементами прогресив-року. Загальна тривалість 53:53.

В цілому альбом записувався упродовж 2,5 року. Загальні витрати становили 26.000 грн.

Композиції «Червона конюшина» і «Hot Shock'79» створені Лемком ще 1979 року, «Де ж ти була?» — в 1980 році. Проте в «той» період зі сцени виконувалася тільки «Hot Shock'79», решта — під гітару Лемком соло в Святому Саду. Решта композицій з'явилися упродовж 2011—2014 рр.

Прихованим мотивом і героїнею «Де ж ти була?» є Наталка «Дюймовочка» Кисельова.

Композиція «Молодий», хоч і пізнішого періоду, але має довшу історію. Спочатку була написана пісня «Крутий» авторства Лемка, яку Супер Вуйки виконали 15 травня 2012 в клубі «Пікассо» і текст якої опубліковано в 2-му випуску альманаху Хіппі у Львові. Проте під час роботи над альбомом з'явився досконаліший текст Джубокса під назвою «Молодий», до речі, присвячений одному з ветеранів Республіки Святого Саду Олександрові «Янґові» Бігуну, який став прототипом її героя.

До альбому включено дві інструментальні композиції, зокрема одну з них на музику Миколи Лисенка «Боже, великий, єдиний» в обробці Лемка, яку записали в студії Лемко (клавішні) і Михайло Кравець (гітара, бас, барабани).

Значний внесок в запис альбому зробив Михайло Кравець — звукорежисер і власник «Muzrecords». Обкладинку оформив Василь Федевич.
"log"

Exact Audio Copy V1.0 beta 4 from 7. December 2014

EAC extraction logfile from 25. December 2014, 14:02

Супер Вуйки / Зі святого саду

Used drive : HL-DT-STDVDRAM GT30N Adapter: 1 ID: 0

Read mode : Burst

Read offset correction : 103
Overread into Lead-In and Lead-Out : No
Fill up missing offset samples with silence : Yes
Delete leading and trailing silent blocks : No
Null samples used in CRC calculations : Yes
Used interface : Native Win32 interface for Win NT & 2000
Gap handling : Not detected, thus appended to previous track

Used output format : Internal WAV Routines
Sample format : 44.100 Hz; 16 Bit; Stereo

TOC of the extracted CD

Track | Start | Length | Start sector | End sector
---------------------------------------------------------
1 | 0:02.00 | 6:53.40 | 150 | 31164
2 | 6:55.40 | 3:54.24 | 31165 | 48738
3 | 10:49.64 | 4:24.36 | 48739 | 68574
4 | 15:14.25 | 3:13.23 | 68575 | 83072
5 | 18:27.48 | 7:37.31 | 83073 | 117378
6 | 26:05.04 | 4:25.49 | 117379 | 137302
7 | 30:30.53 | 3:52.59 | 137303 | 154761
8 | 34:23.37 | 4:52.64 | 154762 | 176725
9 | 39:16.26 | 5:00.18 | 176726 | 199243
10 | 44:16.44 | 4:11.64 | 199244 | 218132
11 | 48:28.33 | 4:21.13 | 218133 | 237720
12 | 52:49.46 | 1:49.43 | 237721 | 245938

Track 1

Filename C:\Users\syancya\Desktop\01 Track01.wav

Timing problem 0:00:37

Peak level 97.7 %
Extraction speed 11.3 X
Copy CRC AA024168
Copy finished

Track 2

Filename C:\Users\syancya\Desktop\02 Track02.wav

Peak level 97.7 %
Extraction speed 12.9 X
Copy CRC ED5AC798
Copy OK

Track 3

Filename C:\Users\syancya\Desktop\03 Track03.wav

Peak level 97.7 %
Extraction speed 13.8 X
Copy CRC AD6AB591
Copy OK

Track 4

Filename C:\Users\syancya\Desktop\04 Track04.wav

Peak level 97.7 %
Extraction speed 14.6 X
Copy CRC 0BC70D06
Copy OK

Track 5

Filename C:\Users\syancya\Desktop\05 Track05.wav

Peak level 97.7 %
Extraction speed 15.8 X
Copy CRC 9BF0FD85
Copy OK

Track 6

Filename C:\Users\syancya\Desktop\06 Track06.wav

Peak level 97.7 %
Extraction speed 16.9 X
Copy CRC C403CB0D
Copy OK

Track 7

Filename C:\Users\syancya\Desktop\07 Track07.wav

Peak level 97.7 %
Extraction speed 16.9 X
Copy CRC BE933DDD
Copy OK

Track 8

Filename C:\Users\syancya\Desktop\08 Track08.wav

Timing problem 0:00:17

Peak level 97.7 %
Extraction speed 17.5 X
Copy CRC 6FA0E9FF
Copy finished

Track 9

Filename C:\Users\syancya\Desktop\09 Track09.wav

Timing problem 0:01:15
Timing problem 0:03:17

Peak level 97.7 %
Extraction speed 11.2 X
Copy CRC 89EE517E
Copy finished

Track 10

Filename C:\Users\syancya\Desktop\10 Track10.wav

Peak level 97.7 %
Extraction speed 19.9 X
Copy CRC D4678423
Copy OK

Track 11

Filename C:\Users\syancya\Desktop\11 Track11.wav

Timing problem 0:03:18

Peak level 97.7 %
Extraction speed 19.4 X
Copy CRC FF8FBECB
Copy finished

Track 12

Filename C:\Users\syancya\Desktop\12 Track12.wav

Peak level 97.7 %
Extraction speed 19.8 X
Copy CRC DDDE579F
Copy OK

No errors occurred

End of status report

---- CUETools DB Plugin V2.1.4

[CTDB TOCID: GD7HRqn_m09rZtLI7eTqCrdNWy8-] disk not present in database
Submit result: insufficient quality


Якщо Ви справді бажаєте підтримати українське - після прослуховування, якщо музика вам сподобалась, придбайте ліцензійний диск. Підтримаймо вітчизняних виконавців!


Срібний реліз (на рейтинг впливає 50% завантаженого)
 Трекер:    Зареєстрований   

Завантажити / скачати українську музику



відео для новачків



 Зареєстрований:   2014-12-26 01:40
 Розмір:   363 MB 
 Оцінка музики:   10/10 (Голосів: 14)
   
ssTAss 
Модератор музики


З нами з: 05.07.08
Востаннє: 03.12.16
Повідомлень: 10932

2014-12-26 02:02  
де купували? (теж хочу)
скани



iwan wan 
VIP


З нами з: 01.10.09
Востаннє: 04.12.16
Повідомлень: 1745

2014-12-26 02:11  
Воу круто, де ви то купили?)
hvvi 
Свій


З нами з: 25.02.10
Востаннє: 03.12.16
Повідомлень: 74

2014-12-26 02:25  
подарував один учасник гурту, по секретним даним близько лютого буде концерт у пікасо, де мона точно купити альбом, а щодо купівлі вже - питайте на фб сторінці
Форкуш 
VIP


З нами з: 03.02.10
Востаннє: 03.12.16
Повідомлень: 1534

2014-12-26 08:20  
зробіть хтось мп3)
химерка 
Поважний учасник


З нами з: 09.10.12
Востаннє: 24.09.16
Повідомлень: 195

2014-12-26 20:55  
Дякую, відколи вийшла книжка "Львів понад усе" цікаво було послухати тих "Супер Вуйків".
Той випадок, коли краще один раз почути, ніж десять разів прочитати. =)
І дякую за інформацію про майбутній концерт, напишіть, будь ласка, у цій темі, коли знатимете точну дату.

Форкуш написано:
зробіть хтось мп3)

Якщо hvvi не проти, то зроблю.

hvvi 
Свій


З нами з: 25.02.10
Востаннє: 03.12.16
Повідомлень: 74

2014-12-26 21:24  
химерка
не проти,
щодо дати - взнаю і розкажу, коли зовиджу когось з "вуйків"

ssTAss 
Модератор музики


З нами з: 05.07.08
Востаннє: 03.12.16
Повідомлень: 10932

2014-12-27 16:40  
hvvi
а не могли б Ви зняти ріп образом?
або хоча б цей правильно зробити? (визначити проміжки, протестувати на тишу, протестувати треки, створити файл куе, додати до файлів завантаження скани)
коли куплю диск, то і сам можу зробити, а поки...

p.s.*srav pes
вуйки - супер

Додано через 4 хвилини 28 секунд:

ще одне, якбисьте) надумували переробляти (переріпувати), то правильно напишіть назву альбому в тегах
Зі Святого Саду
і назву 10 треку

Додано через 2 хвилини 58 секунд:
fooCDtect
fooCDtect - foobar2000 + auCDtect, baralgin.

auCDtect: CD records authenticity detector, version 0.8.2
Copyright (c) 2004 Oleg Berngardt. All rights reserved.
Copyright (c) 2004 Alexander Djourik. All rights reserved.

mode: 0

===========================================
Track: 01 - Червона конюшина
Quality: CDDA 100%
===========================================
Track: 02 - Молодий
Quality: CDDA 100%
===========================================
Track: 03 - Де ж ти була
Quality: CDDA 99%
===========================================
Track: 04 - Твоя Україна
Quality: CDDA 100%
===========================================
Track: 05 - 21-th Century Schizoid Ukraine
Quality: CDDA 99%
===========================================
Track: 06 - Вибори
Quality: MPEG 95%
===========================================
Track: 07 - Час іти
Quality: CDDA 100%
===========================================
Track: 08 - Мене виганяють із дому
Quality: CDDA 100%
===========================================
Track: 09 - Arms of Love
Quality: CDDA 100%
===========================================
Track: 10 - Hot Stock ’79
Quality: CDDA 99%
===========================================
Track: 11 - Пливу
Quality: MPEG 95%
===========================================
Track: 12 - Боже, великий, єдиний
Quality: CDDA 100%
===========================================

OSx86 
Частий відвідувач


З нами з: 15.09.12
Востаннє: 12.11.16
Повідомлень: 39

2014-12-28 15:21  
Кому треба CUE - слова з великої... хоча не знаю, в принципі з малої мабуть тре робити
"CUE sheet"

REM GENRE Rock
REM DATE 2014
PERFORMER "Супер Вуйки"
TITLE "Зі Святого Саду"
FILE "01 - Червона конюшина.flac" WAVE
TRACK 01 AUDIO
TITLE "Червона Конюшина"
INDEX 01 00:00:00
FILE "02 - Молодий.flac" WAVE
TRACK 02 AUDIO
TITLE "Молодий"
INDEX 01 00:00:00
FILE "03 - Де ж ти була.flac" WAVE
TRACK 03 AUDIO
TITLE "Де Ж Ти Була?"
INDEX 01 00:00:00
FILE "04 - Твоя Україна.flac" WAVE
TRACK 04 AUDIO
TITLE "Твоя Україна"
INDEX 01 00:00:00
FILE "05 - 21-th Century Schizoid Ukraine.flac" WAVE
TRACK 05 AUDIO
TITLE "21-th Century Schizoid Ukraine"
INDEX 01 00:00:00
FILE "06 - Вибори.flac" WAVE
TRACK 06 AUDIO
TITLE "Вибори"
INDEX 01 00:00:00
FILE "07 - Час іти.flac" WAVE
TRACK 07 AUDIO
TITLE "Час Іти"
INDEX 01 00:00:00
FILE "08 - Мене виганяють із дому.flac" WAVE
TRACK 08 AUDIO
TITLE "Мене Виганяють Із Дому"
INDEX 01 00:00:00
FILE "09 - Arms of Love.flac" WAVE
TRACK 09 AUDIO
TITLE "Arms of Love"
INDEX 01 00:00:00
FILE "10 - Hot Stock ’79.flac" WAVE
TRACK 10 AUDIO
TITLE "Hot Shock ’79"
INDEX 01 00:00:00
FILE "11 - Пливу.flac" WAVE
TRACK 11 AUDIO
TITLE "Пливу"
INDEX 01 00:00:00
FILE "12 - Боже, великий, єдиний.flac" WAVE
TRACK 12 AUDIO
TITLE "Боже, Великий, Єдиний"
INDEX 01 00:00:00
"Cover"



hvvi 
Свій


З нами з: 25.02.10
Востаннє: 03.12.16
Повідомлень: 74

2015-01-14 10:30  
ssTAss
перероблю, коли буду мати млжливість

концерта буде 20 лютого в Пікассо у Львові. Квитки: фан зона 100 грн, столики - 200. Там же можна буде купити диски.
за квитками та сд можете звертатися за номером +38098588259один

_UK 
Новенький


З нами з: 21.12.14
Востаннє: 23.06.16
Повідомлень: 1

2015-07-21 17:48  
Дуже вдячний за якісний український рок! Краще пізно ніж ніколи! Сінчука всі впізнали?
Ваш часовий пояс: GMT + 2 Години

Нова тема   Відповісти