Завантажити та скачати торренти українською


Королева / The Queen (2006) 720p 2xUkr/Eng | Sub Ukr/Multi

Нові коментарі

Нова тема   Відповісти
Автор Повідомлення
Anonymous 







2014-12-25 20:42  
Королева / The Queen (2006) 720p 2xUkr/Eng | Sub Ukr/Multi



Альтернативний та оригінальний постери





Жанр: драма, біографічний
Країна: США, Великобританія, Франція, Італія

Оскар 2007 за найкращу жіночу роль (Гелен Міррен)

Кінокомпанія: Pathé Pictures International, Granada Film Productions, Pathé Renn Productions, BIM Distribuzione, France 3 Cinéma, Canal+, Future Films, Scott Rudin Productions
Режисер: Стівен Фрірз / Stephen Frears
Актори: Гелен Міррен / Helen Mirren, Джеймс Кромвел / James Cromwell, Майкл Шин / Michael Sheen, Алекс Дженнінґс / Alex Jennings, Сільвія Сімс / Sylvia Syms, Гелен МакКрорі / Helen McCrory, Роджер Аллам / Roger Allam, Тім МакМуллан / Tim McMullan, Робін Соанс / Robin Soans, Лола Піплов / Lola Peploe та інші

Сюжет:
Фільм відкриває нам закулісні пристрасті та інтриги, які бушують між Її Величністю Єлізаветою II та Прем'єр-міністром Тоні Блером, після смерті Принцеси Діани, із спробою розібратися, що ж це було? Трагедія для Королівського Будинку або відвертий показ трауру для публіки...
Підпільна імперія




Рейтинг MPAA: PG-13 - дітям до 13 років перегляд не бажаний
Вікова категорія: 12+

Тривалість: 01:43:22
Якість: 720p [CtrlHD]
Відео:
кодек:
розмір кадру: 1280 х 688
бітрейт: 7161 кбіт/с

Аудіо # 1:
мова: українська
переклад: багатоголосий закадровий
кодек: 2.0
бітрейт: 192 кбіт/с

Аудіо # 2:
мова: українська
переклад: багатоголосий закадровий - Так Треба Продакшн на замовлення телеканалу Інтер
кодек: 2.0
бітрейт: 192 кбіт/с
Примітка
karvai0 написано:

не рекомендую дивитись з аудіо #2, ... оскільки
1. переклад гірший
2. звук з часів коли ентер-фільм транслював з бітрейтом 128кб/с.. тобто не якісний звук + до того Konfucius зберіг сирець в mp3
3. є на початку вставка на 2:30хв з озвучки 1+1
Аудіо # 3:
мова: англійська
переклад: оригінал
кодек: 5.1
бітрейт: 1510 кбіт/с

Аудіо # 4:
мова: англійська
переклад: коментарі режисера Стівена Фрірза та сценариста Пітера Моргана
кодек: 2.0
бітрейт: 192 кбіт/с

Аудіо # 5:
мова: англійська
переклад: коментарі історика Роберта Лейсі
кодек: 2.0
бітрейт: 192 кбіт/с

Субтитри #1:
мова: українська
тип: програмні (м'які)
формат: *.srt

Субтитри #2-6:
мова: англійська, французька, шведська, болгарська, португальська
тип: програмні (м'які)
формат: *.srt
MediaInfo
Код:
General
Unique ID                   : 241502176984118312302893037395707377576 (0xB5AFA09F2D34AFF099C43A3A673F37A8)
Complete name               : The Queen (2006) [2xUkr,Eng sub.Ukr,Multi] 720p [Hurtom].mkv
Format                      : Matroska
Format version              : Version 4 / Version 2
File size                   : 6.80 GiB
Duration                    : 1h 43mn
Overall bit rate            : 9 417 Kbps
Movie name                  : Королева / The Queen (2006) [2xUkr,Eng sub.Ukr,Multi] 720p [Hurtom]
Encoded date                : UTC 2014-12-25 15:38:49
Writing application         : mkvmerge v7.4.0 ('Circles') 64bit built on Dec 12 2014 12:19:56
Writing library             : libebml v1.3.0 + libmatroska v1.4.1
DURATION                    : 01:36:42.344000000
NUMBER_OF_FRAMES            : 1242
NUMBER_OF_BYTES             : 44899
_STATISTICS_WRITING_APP     : mkvmerge v7.4.0 ('Circles') 64bit built on Dec 12 2014 12:19:56
_STATISTICS_WRITING_DATE_UT : 2014-12-25 15:38:49
_STATISTICS_TAGS            : BPS DURATION NUMBER_OF_FRAMES NUMBER_OF_BYTES

Video
ID                          : 1
Format                      : AVC
Format/Info                 : Advanced Video Codec
Format profile              : [email protected]
Format settings, CABAC      : Yes
Format settings, ReFrames   : 10 frames
Codec ID                    : V_MPEG4/ISO/AVC
Duration                    : 1h 43mn
Bit rate                    : 7 161 Kbps
Width                       : 1 280 pixels
Height                      : 688 pixels
Display aspect ratio        : 1.85:1
Frame rate mode             : Constant
Frame rate                  : 23.976 fps
Color space                 : YUV
Chroma subsampling          : 4:2:0
Bit depth                   : 8 bits
Scan type                   : Progressive
Bits/(Pixel*Frame)          : 0.339
Stream size                 : 5.02 GiB (74%)
Title                       : Королева / The Queen (2006) 720p [CtrlHD]
Writing library             : core 57 svn-721M
Encoding settings           : cabac=1 / ref=10 / deblock=1:-3:-3 / analyse=0x3:0x133 / me=umh / subme=7 / brdo=1 / mixed_ref=1 / me_range=21 / chroma_me=1 / trellis=1 / 8x8dct=1 / cqm=2 / deadzone=21,11 / chroma_qp_offset=0 / threads=6 / nr=0 / decimate=1 / mbaff=0 / bframes=16 / b_pyramid=1 / b_adapt=1 / b_bias=0 / direct=3 / wpredb=1 / bime=1 / keyint=250 / keyint_min=25 / scenecut=40(pre) / rc=2pass / bitrate=7161 / ratetol=1.0 / rceq='blurCplx^(1-qComp)' / qcomp=0.60 / qpmin=10 / qpmax=51 / qpstep=4 / cplxblur=20.0 / qblur=0.5 / ip_ratio=1.40 / pb_ratio=1.30 / aq=1:0.6:15.0
Language                    : English
Default                     : Yes
Forced                      : No
DURATION                    : 01:43:22.164000000
NUMBER_OF_FRAMES            : 148703
NUMBER_OF_BYTES             : 5531638700
_STATISTICS_WRITING_APP     : mkvmerge v7.4.0 ('Circles') 64bit built on Dec 12 2014 12:19:56
_STATISTICS_WRITING_DATE_UT : 2014-12-25 15:38:49
_STATISTICS_TAGS            : BPS DURATION NUMBER_OF_FRAMES NUMBER_OF_BYTES

Audio #1
ID                          : 2
Format                      : AC-3
Format/Info                 : Audio Coding 3
Mode extension              : CM (complete main)
Format settings, Endianness : Big
Codec ID                    : A_AC3
Duration                    : 1h 43mn
Bit rate mode               : Constant
Bit rate                    : 192 Kbps
Channel(s)                  : 2 channels
Channel positions           : Front: L R
Sampling rate               : 48.0 KHz
Bit depth                   : 16 bits
Compression mode            : Lossy
Stream size                 : 142 MiB (2%)
Title                       : MVO [1+1] 2.0 192 kbps [Hurtom-karvai0]
Language                    : Ukrainian
Default                     : Yes
Forced                      : No

Audio #2
ID                          : 3
Format                      : AC-3
Format/Info                 : Audio Coding 3
Mode extension              : CM (complete main)
Format settings, Endianness : Big
Codec ID                    : A_AC3
Duration                    : 1h 43mn
Bit rate mode               : Constant
Bit rate                    : 192 Kbps
Channel(s)                  : 2 channels
Channel positions           : Front: L R
Sampling rate               : 48.0 KHz
Bit depth                   : 16 bits
Compression mode            : Lossy
Stream size                 : 142 MiB (2%)
Title                       : MVO [TTP-Enter] 2.0 192 kbps [Hurtom-karvai0]
Language                    : Ukrainian
Default                     : No
Forced                      : No

Audio #3
ID                          : 4
Format                      :
Format/Info                 : Digital Theater Systems
Mode                        : 16
Format settings, Endianness : Big
Codec ID                    : A_DTS
Duration                    : 1h 43mn
Bit rate mode               : Constant
Bit rate                    : 1 510 Kbps
Channel(s)                  : 6 channels
Channel positions           : Front: L C R, Side: L R, LFE
Sampling rate               : 48.0 KHz
Bit depth                   : 24 bits
Compression mode            : Lossy
Stream size                 : 1.09 GiB (16%)
Title                       : Original 5.1 1510 kbps
Language                    : English
Default                     : No
Forced                      : No

Audio #4
ID                          : 5
Format                      : AC-3
Format/Info                 : Audio Coding 3
Mode extension              : CM (complete main)
Format settings, Endianness : Big
Codec ID                    : A_AC3
Duration                    : 1h 43mn
Bit rate mode               : Constant
Bit rate                    : 192 Kbps
Channel(s)                  : 2 channels
Channel positions           : Front: L R
Sampling rate               : 48.0 KHz
Bit depth                   : 16 bits
Compression mode            : Lossy
Stream size                 : 142 MiB (2%)
Title                       : Commentary with Stephen Frears & Peter Morgan
Language                    : English
Default                     : No
Forced                      : No

Audio #5
ID                          : 6
Format                      : AC-3
Format/Info                 : Audio Coding 3
Mode extension              : CM (complete main)
Format settings, Endianness : Big
Codec ID                    : A_AC3
Duration                    : 1h 43mn
Bit rate mode               : Constant
Bit rate                    : 192 Kbps
Channel(s)                  : 2 channels
Channel positions           : Front: L R
Sampling rate               : 48.0 KHz
Bit depth                   : 16 bits
Compression mode            : Lossy
Stream size                 : 142 MiB (2%)
Title                       : Commentary with Historian Robert Lacey
Language                    : English
Default                     : No
Forced                      : No

Text #1
ID                          : 7
Format                      : UTF-8
Codec ID                    : S_TEXT/UTF8
Codec ID/Info               : UTF-8 Plain Text
Language                    : Ukrainian
Default                     : No
Forced                      : No

Text #2
ID                          : 8
Format                      : UTF-8
Codec ID                    : S_TEXT/UTF8
Codec ID/Info               : UTF-8 Plain Text
Language                    : English
Default                     : No
Forced                      : No

Text #3
ID                          : 9
Format                      : UTF-8
Codec ID                    : S_TEXT/UTF8
Codec ID/Info               : UTF-8 Plain Text
Language                    : French
Default                     : No
Forced                      : No

Text #4
ID                          : 10
Format                      : UTF-8
Codec ID                    : S_TEXT/UTF8
Codec ID/Info               : UTF-8 Plain Text
Language                    : Swedish
Default                     : No
Forced                      : No

Text #5
ID                          : 11
Format                      : UTF-8
Codec ID                    : S_TEXT/UTF8
Codec ID/Info               : UTF-8 Plain Text
Language                    : Bulgarian
Default                     : No
Forced                      : No

Text #6
ID                          : 12
Format                      : UTF-8
Codec ID                    : S_TEXT/UTF8
Codec ID/Info               : UTF-8 Plain Text
Language                    : Portuguese
Default                     : No
Forced                      : No




Джерела та подяки:
ріп відео, оригінальні звук та субтитри - CtrlHD (HDbits); українські доріжки - karvai0 - зведення, OlegCena, xslim - запис з ТБ (1), Konfucius - звук до (2); українські субтитри - HDClub, українізовані постери - bilenkuyboy; фільмографії акторів та інформація про озвучення - Віктор (всі - Гуртом).


ЗАЛИШАЙТЕСЬ ЯКОМОГА ДОВШЕ НА РОЗДАЧІ!

СКАЧАВ САМ - ДАЙ СКАЧАТИ ІНШИМ


 Трекер:    Зареєстрований   

Завантажити / скачати фільм українською



відео для новачків



 Зареєстрований:   2014-12-25 20:42
 Розмір:   6.8 GB 
 Оцінка фільму:   4/10 (Голосів: 15)
   
Інші релізи
   Королева / The Queen (2006) 2xUkr/Eng | Sub Ukr/Eng karvai0  0 / 1   1.86 GB   2014-12-24 21:57 
Anonymous 







2014-12-25 21:17  
Українські субтитри також можна взяти на сервері доріжок

Ваш часовий пояс: GMT + 2 Години

Нова тема   Відповісти