Завантажити та скачати торренти українською


Один вдома 3 (Сам удома 3) / Home Alone 3 (1997) 1080i

Нові коментарі

Нова тема   Відповісти
Автор Повідомлення
tarasyk98 
Поважний учасник


З нами з: 19.12.13
Востаннє: 10.12.16
Повідомлень: 201

2014-12-24 21:37  
Один вдома 3 (Сам удома 3) / Home Alone 3 (1997) 1080i

Один вдома 3 (Сам удома 3) / Home Alone 3 (1997) 1080i


Жанр: комедія, сімейний
Країна: США



Кінокомпанія: Twentieth Century Fox Film Corporation
Режисер: Раджа Госнелл (Raja Gosnell)
Актори: Скарлетт Йохансон (Scarlett Johansson), Алекс Д. Линц (Alex D. Linz), Хэвиленд Моррис (Haviland Morris), Олек Круппа (Olek Krupa)

Сюжет:
Продовження гучних Один удома і Один удома 2, що стали одними з касових чемпіонів останніх років. І хоча вся знімальна група цього разу помінялася, починаючи від режисера Кріса Коламбеса і кінчаючи неповторним Макколеєм Калкіним в головній ролі, пригоди хлопчика Кевіна, який володіє неймовірною здатністю губитися, не стали від цього менш захоплюючими. Ви знову станете свідками того, як цей винахідливий підліток знаходить вихід з найскладніших ситуацій, як він розправляється з шахраями, демонструючи чудеса сміливості і винахідливості.


Тривалість: 01:33:10
Якість: 1080i
Відео:
кодек:
розмір кадру: 1920х1080
бітрейт: 12 000 кб/с

Аудіо # 1:
мова: українська
переклад: багатоголосий закадровий
кодек: 2.0
бітрейт: 192 кб/с

Джерело озвучення:
MediaInfo
General
Unique ID : 202890106600955322898056541211579826113 (0x98A3369275374EC49A25E49BBC6ABFC1)
Complete name : D:\Films\Home Alone 3 (1997) 1080i [Hurtom].mkv
Format : Matroska
Format version : Version 4 / Version 2
File size : 8.12 GiB
Duration : 1h 33mn
Overall bit rate : 12.5 Mbps
Encoded date : UTC 2015-01-18 10:31:51
Writing application : mkvmerge v7.1.0 ('Good Love') 64bit built on Jul 27 2014 13:06:55
Writing library : libebml v1.3.0 + libmatroska v1.4.1
DURATION : 01:33:10.464000000
NUMBER_OF_FRAMES : 174702
NUMBER_OF_BYTES : 134171136
_STATISTICS_WRITING_APP : mkvmerge v7.1.0 ('Good Love') 64bit built on Jul 27 2014 13:06:55
_STATISTICS_WRITING_DATE_UT : 2015-01-18 10:31:51
_STATISTICS_TAGS : BPS DURATION NUMBER_OF_FRAMES NUMBER_OF_BYTES

Video
ID : 1
Format : AVC
Format/Info : Advanced Video Codec
Format profile : [email protected]
Format settings, CABAC : Yes
Format settings, ReFrames : 3 frames
Codec ID : V_MPEG4/ISO/AVC
Duration : 1h 33mn
Bit rate : 12.0 Mbps
Width : 1 920 pixels
Height : 1 080 pixels
Display aspect ratio : 16:9
Frame rate mode : Constant
Frame rate : 22.727 fps
Original frame rate : 25.000 fps
Standard : Component
Color space : YUV
Chroma subsampling : 4:2:0
Bit depth : 8 bits
Scan type : Interlaced
Scan order : Top Field First
Bits/(Pixel*Frame) : 0.255
Stream size : 7.83 GiB (96%)
Default : Yes
Forced : No
Color primaries : BT.709
Transfer characteristics : BT.709
Matrix coefficients : BT.709
Color range : Limited

Audio
ID : 2
Format : AC-3
Format/Info : Audio Coding 3
Mode extension : CM (complete main)
Format settings, Endianness : Big
Codec ID : A_AC3
Duration : 1h 33mn
Bit rate mode : Constant
Bit rate : 192 Kbps
Channel(s) : 2 channels
Channel positions : Front: L R
Sampling rate : 48.0 KHz
Bit depth : 16 bits
Compression mode : Lossy
Delay relative to video : -17ms
Stream size : 128 MiB (2%)
Default : Yes
Forced : No
Скріншоти


Джерело: &
Особиста оцінка: 10 - без зайвих вагань рекомендую всім!

Запис з ТБ: OlegCena. Особлива подяка п. omm за синхронізацію.

Торрент-файл оновлено (18.01.2015) Зроблено заміну звукової доріжки.


Один вдома 3 (Сам удома 3) / Home Alone 3 (1997) 1080i


Один вдома 3 (Сам удома 3) / Home Alone 3 (1997) 1080i


Срібний реліз (на рейтинг впливає 50% завантаженого)
 Трекер:    Зареєстрований   

Завантажити / скачати фільм українською



відео для новачків



 Зареєстрований:   2015-01-18 12:50
 Розмір:   8.12 GB 
 Оцінка фільму:   7.9/10 (Голосів: 22)
   
Інші релізи
   Один вдома 3 / Home Alone 3 (1997) Ukr/Eng | Sub Eng Arsenfpu  18 / 0   1.73 GB   2013-05-10 16:46 
igor911 
Відео Гуртом
Відео Гуртом


З нами з: 18.01.08
Востаннє: 10.12.16
Повідомлень: 5217

2014-12-24 23:27  
tarasyk98, може додай один з
українських постерів

мені ось цей найбільш довподоби:

автор - thefir

Код:
[url=http://posters.hurtom.com/albums/movies/home-alone-3.jpg][img]http://posters.hurtom.com/cache/movies/home-alone-3_550.jpg[/img][/url]



Воїн


Воїн
Додано через 1 хвилину 29 секунд:

до речі, українські постери ти завжди можеш пошукати на http://posters.hurtom.com/, внизу є код для вставки.

Додано через 3 хвилини 55 секунд:

додав в назву релізу "Сам удома" - щоб легше знаходився пошуком.

fun7 
Новенький


З нами з: 07.01.09
Востаннє: 21.11.16
Повідомлень: 15

2014-12-26 22:56  
720р буде?
igor911 
Відео Гуртом
Відео Гуртом


З нами з: 18.01.08
Востаннє: 10.12.16
Повідомлень: 5217

2014-12-26 22:58  
fun7, ні. Фільм не дуже популярний, тому розпорошувати і так поодиноких сідів не варто. Качай цей реліз.
sabmaster 
Новенький


З нами з: 09.09.12
Востаннє: 05.12.15
Повідомлень: 4

2015-01-03 19:13  
igor911, мені здається сідів було б більше, якби фільм менше займав..
tarasyk98 
Поважний учасник


З нами з: 19.12.13
Востаннє: 10.12.16
Повідомлень: 201

2015-01-18 13:43  
fun7 написано:
720р буде?

Пізніше буде пенталогія в 720p.

Olegmk 
Новенький


З нами з: 17.07.11
Востаннє: 10.12.16
Повідомлень: 2

2015-12-09 21:47  
Доброго вечора.
За проханням одного з користувачів став на роздачу.
Україна ПЕРЕМОЖЕ!

Ваш часовий пояс: GMT + 2 Години

Нова тема   Відповісти