Завантажити та скачати торренти українською


Сокира Перуна - Сталевий промінь волі (2014) [FLAC] | RAC

Нові коментарі

Нова тема   Відповісти
Автор Повідомлення
Wolf1488 
VIP


З нами з: 20.10.09
Востаннє: 03.12.16
Повідомлень: 429

2014-12-24 03:27  
Сокира Перуна - Сталевий промінь волі (2014) [FLAC] | RAC



Стиль: RAC
Країна, місто: Україна, Київ
Сайти: Офіційний сайт
Видавець: SvaStone
Виконавці:
Арсеній Білодуб - голос
Юрій "Борода" Хвоєнко - гітари
Андрій Костюк - гітари, бас
Олексій Кіктєв - гітари, бас
Ерланд Сіволапов - барабани
Маріна - жіночий голос (3, 9)
Кому Вниз - атмосфера високого духу (1,5)
Munruther - магія звуку (4,7)
Пісні:
    01. В ту ніч...
    02. Чорний сніг
    03. Ночі долоні
    04. Гонтів яр
    05. Шляхом останнього футуриста
    06. Азов. Повний контакт
    07. Нечай
    08. Герої моєї раси
    09. Небесний батальйон
    10. Сталевий промінь волі
EAC

Exact Audio Copy V1.0 beta 3 from 29. August 2011

EAC extraction logfile from 22. December 2014, 22:24

Сокира Перуна / Сталевий промінь волі

Used drive : PLDS DVD-RW DS8A8SH Adapter: 2 ID: 0

Read mode : Secure
Utilize accurate stream : Yes
Defeat audio cache : Yes
Make use of C2 pointers : No

Read offset correction : 6
Overread into Lead-In and Lead-Out : No
Fill up missing offset samples with silence : Yes
Delete leading and trailing silent blocks : No
Null samples used in CRC calculations : Yes
Used interface : Native Win32 interface for Win NT & 2000

Used output format : User Defined Encoder
Selected bitrate : 768 kBit/s
Quality : High
Add ID3 tag : No
Command line compressor : C:\Program Files (x86)\Exact Audio Copy\Flac\flac.exe
Additional command line options : -V -8 %source%

TOC of the extracted CD

Track | Start | Length | Start sector | End sector
---------------------------------------------------------
1 | 0:00.00 | 1:34.00 | 0 | 7049
2 | 1:34.00 | 3:54.74 | 7050 | 24673
3 | 5:28.74 | 5:29.66 | 24674 | 49414
4 | 10:58.65 | 4:54.44 | 49415 | 71508
5 | 15:53.34 | 0:44.25 | 71509 | 74833
6 | 16:37.59 | 3:29.41 | 74834 | 90549
7 | 20:07.25 | 4:45.37 | 90550 | 111961
8 | 24:52.62 | 5:56.23 | 111962 | 138684
9 | 30:49.10 | 3:51.23 | 138685 | 156032
10 | 34:40.33 | 5:36.39 | 156033 | 181271

Track 1, Index 1

Peak level 68.2 %
Extraction speed 1.7 X
Track quality 100.0 %
Copy OK

Track 2, Index 1

Peak level 99.6 %
Extraction speed 1.8 X
Track quality 100.0 %
Copy OK

Track 3, Index 1

Peak level 99.6 %
Extraction speed 2.1 X
Track quality 100.0 %
Copy OK

Track 4, Index 1

Peak level 99.6 %
Extraction speed 2.3 X
Track quality 100.0 %
Copy OK

Track 5, Index 1

Peak level 73.7 %
Extraction speed 1.5 X
Track quality 100.0 %
Copy OK

Track 6, Index 1

Peak level 99.6 %
Extraction speed 2.4 X
Track quality 100.0 %
Copy OK

Track 7, Index 1

Peak level 99.6 %
Extraction speed 2.2 X
Track quality 99.9 %
Copy OK

Track 8, Index 1

Peak level 98.3 %
Extraction speed 2.9 X
Track quality 100.0 %
Copy OK

Track 9, Index 1

Peak level 99.6 %
Extraction speed 3.0 X
Track quality 100.0 %
Copy OK

Track 10, Index 1

Peak level 99.6 %
Extraction speed 3.2 X
Track quality 100.0 %
Copy OK

No errors occurred

End of status report

---- CUETools DB Plugin V2.1.3

[CTDB TOCID: DtZeuO11nqytEynI6IVGof32KJc-] disk not present in database, Submit result: DtZeuO11nqytEynI6IVGof32KJc- has been uploaded

==== Log checksum 9BBF3E54A33123DF0DB702BBAFF6D25D4FDE648E7A0C3EEC8B020FBC13FC2D40 ====
Тривалість: 00:40:16
Мова: українська
Аудіо-кодек: FLAC
Бітрейт: 636 - 1106 кб/с
Джерело: власний ріп


Якщо Ви справді бажаєте підтримати українське - після прослуховування, якщо музика вам сподобалась, придбайте ліцензійний диск. Підтримаймо вітчизняних виконавців!


Срібний реліз (на рейтинг впливає 50% завантаженого)
 Трекер:    Зареєстрований   

Завантажити / скачати українську музику



відео для новачків



 Зареєстрований:   2014-12-24 03:28
 Розмір:   292 MB 
 Оцінка музики:   10/10 (Голосів: 21)
   
Oleksa9 
Поважний учасник


З нами з: 17.05.12
Востаннє: 04.12.16
Повідомлень: 225

2014-12-24 06:20  
Wolf1488 написано:
Маріна

??

Wolf1488 
VIP


З нами з: 20.10.09
Востаннє: 03.12.16
Повідомлень: 429

2014-12-24 07:25  
Oleksa9,
скан буклету

samokyr 
Новенький


З нами з: 18.11.11
Востаннє: 23.01.15
Повідомлень: 11

2014-12-24 15:22  
стань на роздачу будьласка)
Singularity 
Новенький


З нами з: 29.07.13
Востаннє: 17.11.16
Повідомлень: 10

2014-12-26 17:54  
осом!

Альбом дуже в тему.

Oleksa9 
Поважний учасник


З нами з: 17.05.12
Востаннє: 04.12.16
Повідомлень: 225

2014-12-26 18:29  
Wolf1488 написано:
скан буклету

Те, що хтось випадково чи навмисно робить помилку не дає підстави заносити її до винятків з правил.
Тому МарИна.

Singularity написано:
осом!

калька з англ.
Singularity написано:
Альбом дуже в тему.

калька з ворожої.
Невже не залишилося українських слів?

Wolf1488 
VIP


З нами з: 20.10.09
Востаннє: 03.12.16
Повідомлень: 429

2014-12-26 23:26  
Oleksa9, як релізер, я повинен надавати інформацію наявну в буклеті, на сд і т.д. без змін, в цьому і є сенс точних ріпів.
Тому вирішальним буде слово модератора. Я напишу йому в пп.

gosha.samovar 
VIP


З нами з: 08.09.10
Востаннє: 04.12.16
Повідомлень: 400

2014-12-27 14:33  
Oleksa9 написано:

Те, що хтось випадково чи навмисно робить помилку, не дає підстави заносити її до винятків з правил.

Думаю, варто повторити розділові знаки у складнопідрядних реченнях.

olegoik 
Новенький


З нами з: 30.01.12
Востаннє: 29.11.16
Повідомлень: 2

2015-01-03 20:10  
Фантастичний альбом!!!
BigMuzzy 
Новенький


З нами з: 05.07.15
Востаннє: 13.11.16
Повідомлень: 2

2015-07-05 22:11  
ну спасиба,зае...ся искать в качестве!

ssTAss 
Модератор музики


З нами з: 05.07.08
Востаннє: 03.12.16
Повідомлень: 10932

2015-07-05 22:47  
BigMuzzy
в нас спілкуються українською

Ваш часовий пояс: GMT + 2 Години

Нова тема   Відповісти