Завантажити та скачати торренти українською


Різдвяна історія / A Christmas Story (1983) 720p Ukr/Eng | sub Eng

Нові коментарі

Нова тема   Відповісти
Автор Повідомлення
Цікава ідея 
Поважний учасник


З нами з: 25.12.11
Востаннє: 08.04.16
Повідомлень: 169

2014-12-24 00:17  
Різдвяна історія / A Christmas Story (1983) 720p Ukr/Eng | sub Eng



Жанр: комедія, сімейний
Країна: США, Канада



Кінокомпанія: Metro-Goldwyn-Mayer (MGM), Christmas Tree Films
Режисер: Боб Кларк
Актори: Пітер Білінґслі, Мелінда Діллон, Деррен Макґевін, Скотт Шварц

Сюжет:
Історія про дев’ятирічного Ральфі, який мріє про єдиний подарунок: пневматичну рушницю Червоного Вершника. Коли він про це говорить своїй мамі, вона заперечує зі словами, що він собі поранить око. Коли він пише про рушницю у творі, отримує від вчительки три з мінусом. Навіть відповідь Санти у торговому центрі однакова. Але можливо йому все ж посміхнеться щастя.


Українською мовою озвучено студією Цікава ідея на замовлення HURTOM.COM


Тривалість: 01:33:23
Якість:
Відео:
кодек:
розмір кадру: 1280x720
бітрейт: 3786 кб/с
CRF: 21

Аудіо # 1:
мова: українська | Цікава ідея
переклад: багатоголосий закадровий
кодек: 1.0
бітрейт: 192 кб/с

Аудіо # 2:
мова: англійська
переклад: оригінал
кодек: 1.0
бітрейт: 192 кб/с

Субтитри:
мова: англійська
тип: програмні (м'які)
формат: *.srt

Звіт MediaInfo
General
Unique ID : 211301965280218028628354354400622250568 (0x9EF74739B1E555C085D1DBBC427F8A48)
Complete name : A Christmas Story (1983) [ukr,eng] 720p [Hurtom].mkv
Format : Matroska
Format version : Version 4 / Version 2
File size : 2.78 GiB
Duration : 1h 33mn
Overall bit rate : 4 255 Kbps
Movie name : Різдвяна історія / A Christmas Story (1983) [Hurtom]
Encoded date : UTC 2014-12-23 21:35:59
Writing application : mkvmerge v7.0.0 ('Where We Going') 32bit built on Jun 9 2014 15:08:34
Writing library : libebml v1.3.0 + libmatroska v1.4.1
DURATION : 01:29:51.344000000
NUMBER_OF_FRAMES : 1101
NUMBER_OF_BYTES : 39110
_STATISTICS_WRITING_APP : mkvmerge v7.0.0 ('Where We Going') 32bit built on Jun 9 2014 15:08:34
_STATISTICS_WRITING_DATE_UTC : 2014-12-23 21:35:59
_STATISTICS_TAGS : BPS DURATION NUMBER_OF_FRAMES NUMBER_OF_BYTES
Attachment : Yes

Video
ID : 1
Format : AVC
Format/Info : Advanced Video Codec
Format profile : [email protected]
Format settings, CABAC : Yes
Format settings, ReFrames : 8 frames
Codec ID : V_MPEG4/ISO/AVC
Duration : 1h 33mn
Bit rate : 3 786 Kbps
Width : 1 280 pixels
Height : 720 pixels
Display aspect ratio : 16:9
Frame rate mode : Constant
Frame rate : 23.976 fps
Color space : YUV
Chroma subsampling : 4:2:0
Bit depth : 8 bits
Scan type : Progressive
Bits/(Pixel*Frame) : 0.171
Stream size : 2.47 GiB (89%)
Writing library : core 142 r2431 ac76440
Encoding settings : cabac=1 / ref=8 / deblock=1:-1:-1 / analyse=0x3:0x133 / me=umh / subme=10 / psy=1 / psy_rd=1.00:0.15 / mixed_ref=1 / me_range=32 / chroma_me=1 / trellis=2 / 8x8dct=1 / cqm=0 / deadzone=21,11 / fast_pskip=0 / chroma_qp_offset=-3 / threads=12 / lookahead_threads=1 / sliced_threads=0 / nr=0 / decimate=1 / interlaced=0 / bluray_compat=0 / constrained_intra=0 / bframes=3 / b_pyramid=2 / b_adapt=2 / b_bias=0 / direct=3 / weightb=1 / open_gop=0 / weightp=2 / keyint=240 / keyint_min=23 / scenecut=40 / intra_refresh=0 / rc_lookahead=60 / rc=crf / mbtree=1 / crf=21.0 / qcomp=0.60 / qpmin=0 / qpmax=69 / qpstep=4 / vbv_maxrate=31250 / vbv_bufsize=31250 / crf_max=0.0 / nal_hrd=none / filler=0 / ip_ratio=1.40 / aq=1:1.00
Default : Yes
Forced : No
DURATION : 01:33:23.014000000
NUMBER_OF_FRAMES : 134338
NUMBER_OF_BYTES : 2709883541
_STATISTICS_WRITING_APP : mkvmerge v7.0.0 ('Where We Going') 32bit built on Jun 9 2014 15:08:34
_STATISTICS_WRITING_DATE_UTC : 2014-12-23 21:35:59
_STATISTICS_TAGS : BPS DURATION NUMBER_OF_FRAMES NUMBER_OF_BYTES

Audio #1
ID : 2
Format : AC-3
Format/Info : Audio Coding 3
Mode extension : CM (complete main)
Format settings, Endianness : Big
Codec ID : A_AC3
Duration : 1h 33mn
Bit rate mode : Constant
Bit rate : 192 Kbps
Channel(s) : 1 channel
Channel positions : Front: C
Sampling rate : 48.0 KHz
Bit depth : 16 bits
Compression mode : Lossy
Stream size : 128 MiB (5%)
Title : Озвучено на замовлення hurtom.com
Language : Ukrainian
Default : Yes
Forced : No

Audio #2
ID : 3
Format : AC-3
Format/Info : Audio Coding 3
Mode extension : CM (complete main)
Format settings, Endianness : Big
Codec ID : A_AC3
Duration : 1h 33mn
Bit rate mode : Constant
Bit rate : 192 Kbps
Channel(s) : 1 channel
Channel positions : Front: C
Sampling rate : 48.0 KHz
Bit depth : 16 bits
Compression mode : Lossy
Stream size : 128 MiB (5%)
Title : Original
Language : English
Default : No
Forced : No

Text
ID : 4
Format : UTF-8
Codec ID : S_TEXT/UTF8
Codec ID/Info : UTF-8 Plain Text
Title : Original
Language : English
Default : No
Forced : No
log
[info]: frame I:1017 Avg QP:20.09 size:117520
[info]: frame P:36090 Avg QP:22.59 size: 35336
[info]: frame B:97231 Avg QP:24.66 size: 13525
[info]: consecutive B-frames: 1.4% 2.5% 11.3% 84.8%
[info]: mb I I16..4: 2.7% 88.5% 8.7%
[info]: mb P I16..4: 0.4% 8.3% 0.6% P16..4: 53.1% 20.7% 14.1% 0.2% 0.0% skip: 2.5%
[info]: mb B I16..4: 0.0% 1.1% 0.1% B16..8: 48.0% 8.2% 2.0% direct: 5.8% skip:34.7% L0:46.0% L1:48.2% BI: 5.7%
[info]: 8x8 transform intra:89.7% inter:72.8%
[info]: direct mvs spatial:100.0% temporal:0.0%
[info]: coded y,uvDC,uvAC intra: 94.1% 68.6% 23.9% inter: 31.6% 22.2% 0.6%
[info]: i16 v,h,dc,p: 33% 17% 10% 41%
[info]: i8 v,h,dc,ddl,ddr,vr,hd,vl,hu: 7% 7% 5% 11% 17% 15% 15% 12% 12%
[info]: i4 v,h,dc,ddl,ddr,vr,hd,vl,hu: 9% 6% 2% 9% 16% 16% 15% 13% 13%
[info]: i8c dc,h,v,p: 34% 27% 21% 18%
[info]: Weighted P-Frames: Y:7.7% UV:2.9%
[info]: ref P L0: 37.0% 11.6% 22.1% 7.3% 7.6% 5.0% 5.6% 3.1% 0.6% 0.0%
[info]: ref B L0: 77.1% 11.1% 4.6% 2.7% 2.0% 1.5% 0.9%
[info]: ref B L1: 95.9% 4.1%
[info]: kb/s:3869.18
Про озвучення

Українське озвучення створено в рамках проекту "Хочеш кіно українською? Замовляй!"



Особлива подяка:
karvai0

Детальніше про проект.


Джерело:

Фільми, які було озвучено на замовлення Гуртом (допоможіть озвучити наступні):
М: Місто шукає вбивцю (1931)
Чарівник країни Оз (1939)
Великий диктатор (1940)
Громадянин Кейн (1941)
Подвійна страховка (1944)
Це дивовижне життя (1946)
Викрадачі велосипедів (1948)
Рашьомон (1950)
Сім самураїв (1954)
У випадку вбивства телефонуйте "М" (1954)
Леді та Блудько (1955) нове
12 розгніваних чоловіків (1957)
Сьома печатка (1957)
На північ через північний захід (1959)
Більярдист (1961)
Охоронець (1961)
Вбити пересмішника (1962)
Людина, що вбила Ліберті Веленса (1962)
Вісім з половиною (1963)
Велика прогулянка (1966)
Як Ґрінч украв Різдво! (1966)
Випускник (1967)
Самурай (1967)
Одного разу на Дикому Заході (1968)
Коти-аристократи (1970)
Механічний апельсин (1971)
Навколо світу за 80 днів (1972) нове
Китайський квартал (1974)
Пролітаючи над гніздом зозулі (1975)
Телемережа (1976)
Енні Голл (1977) нове
Мисливець на оленів (1978)
Буття Брайана за Монті Пайтоном (1979)
Коли я буду там (1979)
Мангеттен (1979)
Людина-слон (1980)
Приборкання норовливого (1980)
Скажений бик (1980)
Підводний човен (1981)
Ґанді (1982)
Король комедії (1982) нове
Різдвяна історія (1983)
Амадей (1984)
Барва пурпурова (1985)
Бразилія (1985)
Ран (1985)
Великий мишачий детектив (1986)
Небесний замок Лапута (1986)
Акіра (1988)
Мій сусід Тоторо (1988)
Останній з могікан (1992)
Скажені пси (1992)
Шосе в нікуди (1997) нове
Американська історія Ікс (1998)
Страх і огида в Лас-Вегасі (1998)
Шоу Трумена (1998)
Догма (1999)
Магнолія (1999) нове
Сука любов (2000) нове
Нічия земля (2001)
Родина Тененбаумів (2001)
Тріо з Бельвіля (2003)
Труднощі перекладу (2003)
Бункер (2004)
Готель Руанда (2004)
Тренер Картер (2005)
Льодовиковий період 2 (2006)
Лабіринт Фавна (2006)
Людина з планети Земля (2007)
В тіні місяця (2007)
Голод (2008)
Іп Мен (2008)
Викрадена (2008)
Впусти мене (2008)
Хвиля (2008)
Містер Ніхто (2009)
13 вбивць (2010)
Бетмен: Під червоною маскою (2010)
Іп Мен 2 (2010)
Котяче життя (2010)
Позичайка Аріетті (2010)
Чорний Лебідь (2010)
Місто (2010)
Сенна (2010)
50/50 (2011)
Адвокат на лінкольні (2011)
Дерево життя (2011)
Опівночі в Парижі (2011)
Воїн (2011)
Драйв (2011)
Життя за один день (2011)
Укриття (2011)
Хижа в лісі (2011)
Рейд: Спокута (2011)
Акт вбивства (2012)
Арго (2012)
Безпека не гарантується (2012)
Викрадена 2 (2012)
Збірка промінців надії (2012)
Ернест і Селестіна (2012)
Звірі дикого Півдня (2012)
Лінкольн (2012)
Любов (2012)
Надійні хлопці (2012)
Паркер (2012)
Переваги скромників (2012)
Пліч-о-пліч (2012)
Полювання (2012)
Розірване коло (2012)
Суддя Дредд (2012)
Тридцять хвилин по півночі (2012)
Що б ви зробили (2012)
Американська афера (2013)
Виклик (2013)
Вона (2013)
Ворог (2013)
Всередині Л'ювіна Девіса (2013)
Джо (2013)
Зловісні мерці (2013)
Іда (2013)
Лок (2013)
Небраска (2013)
Неймовірна подорож містера Співета (2013) нове
Побічна дія (2013)
Перед північчю (2013)
Снігобур (2013)
Стокер (2013)
TPB: за межами клавіатури (2013)
Гниле місто (2013)
Бердмен (2014)
Вероніка Марс (2014)
Вроджена вада (2014) нове
Дика (2014) нове
Інтерв'ю (2014) нове
Святий Вінсент (2014)
Пісня моря (2014) нове
Призначення (2014) нове
Шеф-кухар (2014)


Авторський реліз (завантажувати можна без реєстрації)
 Трекер:    Зареєстрований   

Завантажити / скачати фільм українською



відео для новачків



 Зареєстрований:   2014-12-24 11:25
 Розмір:   2.78 GB 
 Оцінка фільму:   9.6/10 (Голосів: 17)
   
paulstenley 
Новенький


З нами з: 20.08.11
Востаннє: 01.12.16
Повідомлень: 7

2014-12-27 23:45  
Дуже весела і по-дитячому добра різдвяна комедія. Як раз для сімейного перегляду.
ibobalo 
Новенький


З нами з: 09.04.08
Востаннє: 17.11.16
Повідомлень: 11

2014-12-28 01:20  
Альтернативний постер:
Maters 
VIP


З нами з: 27.03.12
Востаннє: 03.12.16
Повідомлень: 1156

2015-01-11 11:35  
paulstenley написано:
Дуже весела і по-дитячому добра різдвяна комедія. Як раз для сімейного перегляду

+1

.Rusnet8 
Частий відвідувач


З нами з: 19.07.10
Востаннє: 29.11.16
Повідомлень: 30

2015-05-02 07:14  
Як на мене то фільм так собі, та мене дивує інше невже американці всі такі (вибачте) тупі і зациклені на собі?
Ваш часовий пояс: GMT + 2 Години

Нова тема   Відповісти