Завантажити та скачати торренти українською


Проблемне дитя [Проблемна дитина / Важка дитина]. Дилогія / Problem Child. Dilogy (1990-1991) 720p 3&2Ukr/Eng | Sub Eng

Нові коментарі

Нова тема   Відповісти
Останній раз роздавалося stopmafija (2016-12-09)
Автор Повідомлення
tarasyk98 
Поважний учасник


З нами з: 19.12.13
Востаннє: 09.12.16
Повідомлень: 201

2014-12-22 19:51  
Проблемне дитя [Проблемна дитина / Важка дитина]. Дилогія / Problem Child. Dilogy (1990-1991) 720p 3&2Ukr/Eng | Sub Eng
Проблемне дитя / Проблемна дитина / Важка дитина / Problem Child (1990) 720p 3xUkr/Eng | Sub Eng
Проблемне дитя [Проблемна дитина / Важка дитина]. Дилогія / Problem Child. Dilogy (1990-1991) 720p 3&2Ukr/Eng | Sub Eng

Жанр: комедія, сімейний
Країна: США



Кінокомпанія: Universal Pictures
Режисер: Денніс Дуґан (Dennis Dugan)
Актори: Джон Ріттер (John Ritter), Джек Варден (Jack Warden), Майкл Олівер (Michael Oliver), Ґілберт Ґоттфілд (Gilbert Gottfried), Емі Ясбек (Amy Yasbeck) та інші.

Сюжет:
З моменту народження сирітка Джуніор кілька разів потрапляв від одних батьків до інших — і всі вони поспішали позбавитися від дійсного біса, що приносить суцільний клопіт і неприємності! Так він опинився в дитячому притулку. Доведені до крайності його витівками, керівники притулку з радістю передали семирічного бандита бездітній парі. Нові батьки не раз пошкодували про свій крок. Особливо після того, як чадо викрало нову матусю і зажадало викуп...


Тривалість: 01:20:52
Якість: 720p
Відео:
кодек:
розмір кадру: 1280х716
бітрейт: 4175 кб/с

Аудіо # 1:
мова: українська
переклад: багатоголосий закадровий
кодек: 2.0
бітрейт: 192 кб/с
озвучено: (ранній переклад, приблизно 2000-го року)
перекладено як: Проблемне дитя

Аудіо # 2:
мова: українська
переклад: багатоголосий закадровий
кодек: 2.0
бітрейт: 192 кб/с
озвучено: (пізній переклад, переозвучка 2008-го року)
перекладено як: Проблемна дитина

Аудіо # 3:
мова: українська
переклад: багатоголосий закадровий
кодек: 2.0
бітрейт: 192 кб/с
озвучено: на замовлення (2010-го року)
перекладено як: Важка дитина

Аудіо # 4:
мова: англійська
переклад: оригінал
кодек: 2.0
бітрейт: 192 кб/с

Субтитри:
мова: англійська
тип: програмні (м'які)
формат: *.srt
MediaInfo
General
Unique ID : 186806987962081652824124215069112683166 (0x8C89B79A018CC4C19F242878C8964A9E)
Complete name : D:\Відео\Problem Child. Dilogy (1990.1991) 720p [Hurtom]\Problem Child (1990) 720p [Hurtom].mkv
Format : Matroska
Format version : Version 4 / Version 2
File size : 2.85 GiB
Duration : 1h 20mn
Overall bit rate : 5 043 Kbps
Movie name : Трудный ребенок (1990) [ 720p]
Encoded date : UTC 2014-12-21 17:54:16
Writing application : mkvmerge v7.1.0 ('Good Love') 64bit built on Jul 27 2014 13:06:55
Writing library : libebml v1.3.0 + libmatroska v1.4.1
DURATION : 01:20:41.888000000
NUMBER_OF_FRAMES : 151309
NUMBER_OF_BYTES : 116205312
_STATISTICS_WRITING_APP : mkvmerge v7.1.0 ('Good Love') 64bit built on Jul 27 2014 13:06:55
_STATISTICS_WRITING_DATE_UT : 2014-12-21 17:54:16
_STATISTICS_TAGS : BPS DURATION NUMBER_OF_FRAMES NUMBER_OF_BYTES

Video
ID : 1
Format : AVC
Format/Info : Advanced Video Codec
Format profile : [email protected]
Format settings, CABAC : No
Format settings, ReFrames : 2 frames
Codec ID : V_MPEG4/ISO/AVC
Duration : 1h 20mn
Bit rate : 4 175 Kbps
Width : 1 280 pixels
Height : 716 pixels
Display aspect ratio : 16:9
Frame rate mode : Constant
Frame rate : 23.976 fps
Color space : YUV
Chroma subsampling : 4:2:0
Bit depth : 8 bits
Scan type : Progressive
Bits/(Pixel*Frame) : 0.190
Stream size : 2.36 GiB (83%)
Title : Problem Child
Language : Russian
Default : Yes
Forced : Yes
Color primaries : BT.709
Transfer characteristics : BT.709
Matrix coefficients : BT.709
Color range : Limited

Audio #1
ID : 2
Format : AC-3
Format/Info : Audio Coding 3
Mode extension : CM (complete main)
Format settings, Endianness : Big
Codec ID : A_AC3
Duration : 1h 20mn
Bit rate mode : Constant
Bit rate : 192 Kbps
Channel(s) : 2 channels
Channel positions : Front: L R
Sampling rate : 48.0 KHz
Bit depth : 16 bits
Compression mode : Lossy
Stream size : 111 MiB (4%)
Title : , 2ch, 192 Kbps (MVO) |ICTV (ранний)|
Language : Ukrainian
Default : No
Forced : Yes

Audio #2
ID : 3
Format : AC-3
Format/Info : Audio Coding 3
Mode extension : CM (complete main)
Format settings, Endianness : Big
Codec ID : A_AC3
Duration : 1h 20mn
Bit rate mode : Constant
Bit rate : 192 Kbps
Channel(s) : 2 channels
Channel positions : Front: L R
Sampling rate : 48.0 KHz
Bit depth : 16 bits
Compression mode : Lossy
Stream size : 111 MiB (4%)
Title : , 2ch, 192 Kbps (MVO) |ICTV (поздний)|
Language : Ukrainian
Default : No
Forced : No

Audio #3
ID : 4
Format : AC-3
Format/Info : Audio Coding 3
Mode extension : CM (complete main)
Format settings, Endianness : Big
Codec ID : A_AC3
Duration : 1h 20mn
Bit rate mode : Constant
Bit rate : 192 Kbps
Channel(s) : 2 channels
Channel positions : Front: L R
Sampling rate : 48.0 KHz
Bit depth : 16 bits
Compression mode : Lossy
Stream size : 111 MiB (4%)
Title : , 2ch, 192 Kbps (MVO) |ТРК "Україна"|
Language : Ukrainian
Default : No
Forced : No

Audio #4
ID : 6
Format : AC-3
Format/Info : Audio Coding 3
Format profile : Dolby Digital
Mode extension : CM (complete main)
Format settings, Endianness : Big
Codec ID : A_AC3
Duration : 1h 20mn
Bit rate mode : Constant
Bit rate : 192 Kbps
Channel(s) : 2 channels
Channel positions : Front: L R
Sampling rate : 48.0 KHz
Bit depth : 16 bits
Compression mode : Lossy
Stream size : 111 MiB (4%)
Title : English
Default : No
Forced : No

Text
ID : 5
Format : UTF-8
Codec ID : S_TEXT/UTF8
Codec ID/Info : UTF-8 Plain Text
Title : [полный]
Language : English
Default : No
Forced : No

Menu
00:00:00.000 : en:00:00:00.000
00:09:56.000 : en:00:09:56.000
00:19:38.000 : en:00:19:38.000
00:27:22.000 : en:00:27:22.000
00:36:42.000 : en:00:36:42.000
00:45:48.000 : en:00:45:48.000
00:55:14.000 : en:00:55:14.000
01:05:14.000 : en:01:05:14.000
01:12:39.000 : en:01:12:39.000
01:16:10.000 : en:01:16:10.000
Скріншоти







Проблемне дитя 2 / Проблемна дитина 2 / Problem Child 2 (1991) 720p 2xUkr/Eng | Sub Eng

Проблемне дитя [Проблемна дитина / Важка дитина]. Дилогія / Problem Child. Dilogy (1990-1991) 720p 3&2Ukr/Eng | Sub Eng

Жанр: комедія, сімейний
Країна: США



Кінокомпанія: Universal Pictures
Режисер: Браян Левант (Brian Levant)
Актори: Джон Ріттер (John Ritter), Джек Варден (Jack Warden), Майкл Олівер (Michael Oliver), Ґілберт Ґоттфілд (Gilbert Gottfried), Емі Ясбек (Amy Yasbeck) та інші.

Сюжет:
Джуніор повертається: разом з Беном, своїм приймальним батьком, він переїжджає в Мортвілл "світову столицю розлучень". Тут Бен закохується в красиву, але не дуже розумну, зате багату жінку Лаванду Дюмор, яка хоче одружувати його на собі і позбавитися від Джуніора. Намагаючись уникнути катастрофи і звести разом своїх нічого непідозрюючих батьків, Джуніор і його нова подружка Трікси (чергове чудовисько) вплутуються в самі різні неприємності. І ми переконуємося в тому, що, якщо ОДНЕ чудовисько - це вже головний біль, то ДВА - це справжній апокаліпсис!


Тривалість: 01:30:40
Якість: 720p
Відео:
кодек:
розмір кадру: 1280х690
бітрейт: 3876 кб/с

Аудіо # 1:
мова: українська
переклад: багатоголосий закадровий
кодек: 2.0
бітрейт: 192 кб/с
озвучено:
перекладено як: Проблемне дитя

Аудіо # 2:
мова: українська
переклад: багатоголосий закадровий
кодек: 2.0
бітрейт: 192 кб/с
озвучено: на замовлення (2010-го року)
перекладено як: Проблемна дитина

Аудіо # 3:
мова: англійська
переклад: оригінал
кодек: 2.0
бітрейт: 192 кб/с

Субтитри:
мова: англійська
тип: програмні (м'які)
формат: *.srt
MediaInfo
General
Unique ID : 242577141466912419450520481871688574419 (0xB67EA87674CB10BDA746C843EFAF25D3)
Complete name : D:\Відео\Problem Child. Dilogy (1990.1991) 720p [Hurtom]\Problem Child 2 (1991) 720p [Hurtom].mkv
Format : Matroska
Format version : Version 4 / Version 2
File size : 2.88 GiB
Duration : 1h 30mn
Overall bit rate : 4 542 Kbps
Movie name : Трудный ребенок 2 (1991) [ 720p]
Encoded date : UTC 2014-12-21 19:04:13
Writing application : mkvmerge v7.1.0 ('Good Love') 64bit built on Jul 27 2014 13:06:55
Writing library : libebml v1.3.0 + libmatroska v1.4.1
DURATION : 01:30:40.608000000
NUMBER_OF_FRAMES : 170019
NUMBER_OF_BYTES : 130574592
_STATISTICS_WRITING_APP : mkvmerge v7.1.0 ('Good Love') 64bit built on Jul 27 2014 13:06:55
_STATISTICS_WRITING_DATE_UT : 2014-12-21 19:04:13
_STATISTICS_TAGS : BPS DURATION NUMBER_OF_FRAMES NUMBER_OF_BYTES

Video
ID : 1
Format : AVC
Format/Info : Advanced Video Codec
Format profile : [email protected]
Format settings, CABAC : No
Format settings, ReFrames : 2 frames
Codec ID : V_MPEG4/ISO/AVC
Duration : 1h 30mn
Bit rate : 3 876 Kbps
Width : 1 280 pixels
Height : 690 pixels
Display aspect ratio : 1.85:1
Frame rate mode : Constant
Frame rate : 23.976 fps
Color space : YUV
Chroma subsampling : 4:2:0
Bit depth : 8 bits
Scan type : Progressive
Bits/(Pixel*Frame) : 0.183
Stream size : 2.45 GiB (85%)
Title : Problem Child 2
Language : Russian
Default : Yes
Forced : Yes
Color primaries : BT.709
Transfer characteristics : BT.709
Matrix coefficients : BT.709
Color range : Limited

Audio #1
ID : 2
Format : AC-3
Format/Info : Audio Coding 3
Mode extension : CM (complete main)
Format settings, Endianness : Big
Codec ID : A_AC3
Duration : 1h 30mn
Bit rate mode : Constant
Bit rate : 192 Kbps
Channel(s) : 2 channels
Channel positions : Front: L R
Sampling rate : 48.0 KHz
Bit depth : 16 bits
Compression mode : Lossy
Stream size : 125 MiB (4%)
Title : , 2ch, 192 Kbps (MVO) |ICTV|
Language : Ukrainian
Default : No
Forced : Yes

Audio #2
ID : 3
Format : AC-3
Format/Info : Audio Coding 3
Mode extension : CM (complete main)
Format settings, Endianness : Big
Codec ID : A_AC3
Duration : 1h 30mn
Bit rate mode : Constant
Bit rate : 192 Kbps
Channel(s) : 2 channels
Channel positions : Front: L R
Sampling rate : 48.0 KHz
Bit depth : 16 bits
Compression mode : Lossy
Stream size : 125 MiB (4%)
Title : , 2ch, 192 Kbps (MVO) |ТРК "Україна"|
Language : Ukrainian
Default : No
Forced : No

Audio #3
ID : 5
Format : AC-3
Format/Info : Audio Coding 3
Mode extension : CM (complete main)
Format settings, Endianness : Big
Codec ID : A_AC3
Duration : 1h 30mn
Bit rate mode : Constant
Bit rate : 192 Kbps
Channel(s) : 2 channels
Channel positions : Front: L R
Sampling rate : 48.0 KHz
Bit depth : 16 bits
Compression mode : Lossy
Stream size : 125 MiB (4%)
Title : English
Default : No
Forced : No

Text
ID : 4
Format : UTF-8
Codec ID : S_TEXT/UTF8
Codec ID/Info : UTF-8 Plain Text
Title : [полный]
Language : English
Default : No
Forced : No

Menu
00:00:00.000 : en:Welcome to Mortville (Main Titles)
00:03:40.000 : en:Divorce Capital of the World
00:08:38.000 : en:First Day of School
00:15:27.000 : en:Lady in Red
00:20:22.000 : en:Babysitters Suck
00:26:34.000 : en:Big Ben’s Back
00:30:06.000 : en:The Love Rock
00:36:24.000 : en:Goodbye Ladies
00:39:51.000 : en:Two of a Kind
00:44:37.000 : en:Barf Fest
00:50:48.000 : en:Maid to Order
00:55:31.000 : en:Roach Hotel
00:59:17.000 : en:Open House
01:05:52.000 : en:Blood Test
01:11:04.000 : en:Food Fight
01:15:14.000 : en:Playing Cupid
01:20:52.000 : en:Change in Plans
01:26:31.000 : en:End Titles
Скріншоти







Джерело: &
Особиста оцінка: 10 - без зайвих вагань рекомендую всім!


Срібний реліз (на рейтинг впливає 50% завантаженого)
 Трекер:    Зареєстрований   

Завантажити / скачати фільм українською



відео для новачків



 Зареєстрований:   2014-12-22 20:06
 Розмір:   5.73 GB 
 Оцінка фільму:   9.9/10 (Голосів: 11)
   
karvai0 
Відео Гуртом - запис з ТБ
Відео Гуртом - запис з ТБ


З нами з: 18.01.10
Востаннє: 09.09.16
Повідомлень: 3686

2014-12-22 22:16  
не дубльовано, а озвучено
igor911 
Відео Гуртом
Відео Гуртом


З нами з: 18.01.08
Востаннє: 09.12.16
Повідомлень: 5194

2015-01-02 01:34  
Щодо жанру "сімейний" цих фільмів треба зробити зауваження, що дивитися з дітьми до 12-14 років не варто. Переконався сам після "жартів" про хлюпання спермою в пробірку чи в живу.
karvai0 
Відео Гуртом - запис з ТБ
Відео Гуртом - запис з ТБ


З нами з: 18.01.10
Востаннє: 09.09.16
Повідомлень: 3686

2015-01-20 20:13  
кнопка imdb крива
igor911 
Відео Гуртом
Відео Гуртом


З нами з: 18.01.08
Востаннє: 09.12.16
Повідомлень: 5194

2015-01-20 20:14  
karvai0, поправив
TUB0RG 
Новенький


З нами з: 15.03.12
Востаннє: 07.12.16
Повідомлень: 6

2015-12-29 12:49  
смішно як і колись) Дякую!
Ваш часовий пояс: GMT + 2 Години

Нова тема   Відповісти