Завантажити та скачати торренти українською


Ілюзія обману / Now You See Me (2013) 720p Ukr/Eng | Sub Eng

Нові коментарі

Нова тема   Відповісти
Автор Повідомлення
Anonymous 







2014-12-21 18:37  
Ілюзія обману / Now You See Me (2013) 720p Ukr/Eng | Sub Eng


Жанр: кримінальний, містика, трилер
Країна: Франція, США



Кінокомпанія: Summit Entertainment, K/O Paper Products, SOIXAN7E QUIN5E
Режисер: Луї Летер'є
Актори: Джесі Айзенберґ, Вуді Гаррельсон, Айла Фішер, Дейв Франко, Марк Руффало, Мелані Лоран, Морґан Фрімен, Майкл Кейн, Майкл Келлі, Хосе Ґарсія

Сюжет:
Фільм розповідає про команду професійних фокусників, які під час своїх шоу здійснюють зухвалі пограбування банків. Через певний час до справи підключається ФБР, але викрити майстрів ілюзії виявляється не так просто...


Тривалість: 01:55:21
Якість:
Відео:
кодек:
розмір кадру: 1280 х 531
бітрейт: 6387 кб/с

Аудіо # 1:
мова: українська
переклад: багатоголосий закадровий
кодек: 2.0
бітрейт: 192 кб/с

Аудіо # 2:
мова: англійська
переклад: оригінал
кодек: 5.1
бітрейт: 640 кб/с

Субтитри:
мова: англійська
тип: програмні (м'які)
формат: *.srt

Джерело озвучення:
MediaInfo
General
Unique ID : 211087488575057302271617363439206942514 (0x9ECDF8B517242156B3A8F337AFDA4732)
Complete name : F:\Now You See Me (2013) 720p [ukr, eng] [sub eng] [Hurtom].mkv
Format : Matroska
Format version : Version 4 / Version 2
File size : 5.94 GiB
Duration : 1h 55mn
Overall bit rate : 7 366 Kbps
Movie name : Now You See Me / Theatrical Cut (2013) - HQ-ViDEO
Encoded date : UTC 2014-12-21 16:26:16
Writing application : mkvmerge v6.1.0 ('Old Devil') built on Mar 4 2013 09:10:42
Writing library : libebml v1.3.0 + libmatroska v1.4.0

Video
ID : 1
Format : AVC
Format/Info : Advanced Video Codec
Format profile : [email protected]
Format settings, CABAC : Yes
Format settings, ReFrames : 12 frames
Codec ID : V_MPEG4/ISO/AVC
Duration : 1h 55mn
Bit rate : 6 387 Kbps
Width : 1 280 pixels
Height : 534 pixels
Display aspect ratio : 2.40:1
Frame rate mode : Constant
Frame rate : 23.976 fps
Color space : YUV
Chroma subsampling : 4:2:0
Bit depth : 8 bits
Scan type : Progressive
Bits/(Pixel*Frame) : 0.390
Stream size : 5.15 GiB (87%)
Title : Vaippp @ 6531 Kbps
Writing library : core 135 r2345 f0c1c53
Encoding settings : cabac=1 / ref=12 / deblock=1:-3:-3 / analyse=0x3:0x133 / me=esa / subme=11 / psy=1 / psy_rd=1.07:0.06 / mixed_ref=1 / me_range=24 / chroma_me=1 / trellis=2 / 8x8dct=1 / cqm=0 / deadzone=21,11 / fast_pskip=1 / chroma_qp_offset=-3 / threads=12 / lookahead_threads=2 / sliced_threads=0 / nr=0 / decimate=1 / interlaced=0 / bluray_compat=0 / constrained_intra=0 / bframes=8 / b_pyramid=2 / b_adapt=2 / b_bias=0 / direct=1 / weightb=1 / open_gop=0 / weightp=2 / keyint=240 / keyint_min=22 / scenecut=40 / intra_refresh=0 / rc_lookahead=60 / rc=crf / mbtree=0 / crf=17.5 / qcomp=0.80 / qpmin=0 / qpmax=69 / qpstep=4 / vbv_maxrate=62500 / vbv_bufsize=78125 / crf_max=0.0 / nal_hrd=none / ip_ratio=1.40 / pb_ratio=1.30 / aq=1:0.75
Language : English
Default : Yes
Forced : No
Color primaries : BT.709
Transfer characteristics : BT.709
Matrix coefficients : BT.709
Color range : Limited

Audio #1
ID : 2
Format : AC-3
Format/Info : Audio Coding 3
Mode extension : CM (complete main)
Format settings, Endianness : Big
Codec ID : A_AC3
Duration : 1h 55mn
Bit rate mode : Constant
Bit rate : 192 Kbps
Channel(s) : 2 channels
Channel positions : Front: L R
Sampling rate : 48.0 KHz
Bit depth : 16 bits
Compression mode : Lossy
Stream size : 158 MiB (3%)
Language : Ukrainian
Default : Yes
Forced : No

Audio #2
ID : 3
Format : AC-3
Format/Info : Audio Coding 3
Mode extension : CM (complete main)
Format settings, Endianness : Big
Codec ID : A_AC3
Duration : 1h 55mn
Bit rate mode : Constant
Bit rate : 640 Kbps
Channel(s) : 6 channels
Channel positions : Front: L C R, Side: L R, LFE
Sampling rate : 48.0 KHz
Bit depth : 16 bits
Compression mode : Lossy
Stream size : 528 MiB (9%)
Language : English
Default : No
Forced : No

Text
ID : 4
Format : UTF-8
Codec ID : S_TEXT/UTF8
Codec ID/Info : UTF-8 Plain Text
Language : English
Default : No
Forced : No

Menu
00:00:00.000 : en:Chapter 01
00:07:41.794 : en:Chapter 02
00:13:34.271 : en:Chapter 03
00:20:17.466 : en:Chapter 04
00:30:13.144 : en:Chapter 05
00:37:35.169 : en:Chapter 06
00:44:45.724 : en:Chapter 07
00:51:15.905 : en:Chapter 08
00:58:56.908 : en:Chapter 09
01:04:31.909 : en:Chapter 10
01:13:21.938 : en:Chapter 11
01:20:44.130 : en:Chapter 12
01:27:06.053 : en:Chapter 13
01:35:46.448 : en:Chapter 14
01:41:00.178 : en:Chapter 15
01:45:47.507 : en:Chapter 16


Подяка пану slavik_v_z за запис звуку з ТБ, та пану Gelios за зведення.

Джерело: &


 Трекер:    Зареєстрований   

Завантажити / скачати фільм українською



відео для новачків



 Зареєстрований:   2014-12-21 18:37
 Розмір:   5.94 GB 
 Оцінка фільму:   9.2/10 (Голосів: 48)
   
Інші релізи
   Ілюзія обману / Now You See Me (2013) AVC Ukr/Eng | Sub Eng Загора  13 / 0   2.09 GB   2016-09-09 21:15 
   Ілюзія обману / Now You See Me (2013) 1080p 2xUkr/Eng | Sub Eng JustAMan  13 / 0   14.41 GB   2014-12-22 04:12 
   Ілюзія обману / Now You See Me (2013) Ukr/Eng Gelios  56 / 0   2.18 GB   2014-12-21 17:46 
   Ілюзія обману / Now You See Me (2013) | Mic legos25  12 / 0   1.22 GB   2013-08-26 22:56 
Qmax 
Новенький


З нами з: 04.02.09
Востаннє: 31.03.15
Повідомлень: 2

2014-12-21 19:09  
звук Mic?
11FrYkT 
Модератор відео


З нами з: 20.02.11
Востаннє: 08.12.16
Повідомлень: 3128

2014-12-21 19:40  
Qmax , тож пише ICTV
Anonymous 







2014-12-21 19:48  
11FrYkT
Я відразу забув вказати.

alexcaptain 
Свій


З нами з: 20.03.14
Востаннє: 03.12.16
Повідомлень: 74

2014-12-22 07:45  
Класний фільм
andzhej 
Частий відвідувач


З нами з: 30.08.10
Востаннє: 04.12.16
Повідомлень: 36

2015-01-18 01:49  
Чудовий фільм!
strannikosho_trek 
Новенький


З нами з: 29.05.14
Востаннє: 07.12.16
Повідомлень: 15

2015-01-18 17:11  
Фільм класний, але натякає на продовження. Чекаю.
don pedro 
Попереджень: 1
Попереджень: 1 


З нами з: 29.06.11
Востаннє: 08.12.16
Повідомлень: 8763

2015-01-18 17:32  
strannikosho_trek
Зараз на продовження натякає, напевно про всяк випадок, майже кожний фільм.

omm 
Відео Гуртом - фільмокрай
Відео Гуртом - фільмокрай


З нами з: 12.06.12
Востаннє: 08.12.16
Повідомлень: 2066

2015-01-18 17:56  
strannikosho_trek написано:
Фільм класний, але натякає на продовження. Чекаю.

"Ілюзія обману: Другий акт" - прем'єра 9 червня 2016 (без жодних натяківWink (2))

eisenmann 
Частий відвідувач


З нами з: 26.09.12
Востаннє: 07.12.16
Повідомлень: 34

2015-01-25 20:19  
Фільм якісний, але головний сюжетний поворот трішки пріснуватий.
Maters 
VIP


З нами з: 27.03.12
Востаннє: 08.12.16
Повідомлень: 1162

2015-02-22 15:22  
Мені фільм сподобався, навіть дуже. Круто те, що захопив із перших хвилин. А фокус на початку із бубовою сімкою просто бомба)))
Цікаві актори, вдало підібрана музика, динамічність, доволі заплутаний сюжет і неочікувана для мене розв'язка - маніфік))

fozzy412 
Свій


З нами з: 15.03.14
Востаннє: 08.12.16
Повідомлень: 68

2015-03-31 15:40  
Зробiть хтось раздачу меншу за розмiром, але все ж таки у АVC!
Відьмачечок 
Частий відвідувач


З нами з: 17.05.11
Востаннє: 06.12.16
Повідомлень: 47

2016-08-25 01:28  
Перед переглядом другої частини вирішив глянути перший фільм, бо якось пропустив і раніше його не бачив.
В підсумку отримав справжнє задоволення, хоча не люблю хепі-ендів.
Фільм раджу до перегляду, якісна річ.

Ваш часовий пояс: GMT + 2 Години

Нова тема   Відповісти