Завантажити та скачати торренти українською


Святий Лоран. Страсті великого кутюр'є / Saint Laurent (2014) 1080p Ukr/Fre

Нові коментарі

Нова тема   Відповісти
Останній раз роздавалося richee (2016-01-03)
Автор Повідомлення
Anonymous 







2014-12-21 11:11  
Святий Лоран. Страсті великого кутюр'є / Saint Laurent (2014) 1080p Ukr/Fre

Святий Лоран. Страсті великого кутюр'є / Saint Laurent (2014) 1080p Ukr/Fre


Жанр: біографічний, драма
Країна: Франція



Кінокомпанія: Europa Corp
Режисер: Бертран Бонелло
Актори: Гаспар Ульель, Жеремі Ренье, Луі Гаррель, Леа Сейду, Валерія Бруні Тадескі, Домінік Санда

Сюжет:
У цьому фільмі розкривається період життя відомого модельєра Ів Сена-Лорана. Особистість кутюр'є постає не зовсім звичайно, він геній свого покоління і своєї культури, хоч і не без цього. Тут показані пошуки дизайнером натхнення для своїх робіт і його особисте життя. Сен-Лоран звертається до трактування Пруста, він з'являється в кадрі робіт Енді Ворхола. Тодішнє протягом життя творило історію і саме цей ритм насичував Іва, як, наприклад, різні вечірки і зустрічі в Марракеші. Так біографічна стрічка відкриває не тільки людину, яка творила в ті роки, але і деталі, і особливості епохи.


Тривалість: 02:30:26
Якість: 1080p
Відео:
кодек:
розмір кадру: 1920 x 1040
бітрейт: 8890 кб/с

Аудіо # 1:
мова: українська
переклад: багатоголосий закадровий
кодек: 2.0
бітрейт: 192 кб/с

Аудіо # 2:
мова: французька
переклад: оригінал
кодек: 5.1
бітрейт: 1509 кб/с
MediaInfo
General
Unique ID : 251520623968199168922183539909398802401 (0xBD391C31AF56B912BED32E8D5BFAAFE1)
Complete name : E:\Saint Laurent (2014) 10800p [Ukr.Fre] [Hurtom].mkv
Format : Matroska
Format version : Version 4 / Version 2
File size : 11.1 GiB
Duration : 2h 30mn
Overall bit rate : 10.6 Mbps
Encoded date : UTC 2015-02-25 19:31:35
Writing application : mkvmerge v7.6.0 ('Garden of Dreams') 64bit built on Feb 8 2015 13:04:34
Writing library : libebml v1.3.1 + libmatroska v1.4.2
DURATION : 02:30:24.192000000
NUMBER_OF_FRAMES : 282006
NUMBER_OF_BYTES : 216580608
_STATISTICS_WRITING_APP : mkvmerge v7.6.0 ('Garden of Dreams') 64bit built on Feb 8 2015 13:04:34
_STATISTICS_WRITING_DATE_UT : 2015-02-25 19:31:35
_STATISTICS_TAGS : BPS DURATION NUMBER_OF_FRAMES NUMBER_OF_BYTES

Video
ID : 1
Format : AVC
Format/Info : Advanced Video Codec
Format profile : [email protected]
Format settings, CABAC : Yes
Format settings, ReFrames : 4 frames
Codec ID : V_MPEG4/ISO/AVC
Duration : 2h 30mn
Bit rate : 8 890 Kbps
Width : 1 920 pixels
Height : 1 040 pixels
Display aspect ratio : 1.85:1
Frame rate mode : Constant
Frame rate : 24.000 fps
Color space : YUV
Chroma subsampling : 4:2:0
Bit depth : 8 bits
Scan type : Progressive
Bits/(Pixel*Frame) : 0.186
Stream size : 9.12 GiB (82%)
Writing library : core 144 r2525 40bb568
Encoding settings : cabac=1 / ref=4 / deblock=1:0:0 / analyse=0x3:0x113 / me=umh / subme=8 / psy=1 / psy_rd=1.00:0.00 / mixed_ref=1 / me_range=16 / chroma_me=1 / trellis=1 / 8x8dct=1 / cqm=0 / deadzone=21,11 / fast_pskip=1 / chroma_qp_offset=-2 / threads=18 / lookahead_threads=3 / sliced_threads=0 / nr=0 / decimate=1 / interlaced=0 / bluray_compat=0 / constrained_intra=0 / bframes=3 / b_pyramid=2 / b_adapt=2 / b_bias=0 / direct=3 / weightb=1 / open_gop=0 / weightp=2 / keyint=240 / keyint_min=24 / scenecut=40 / intra_refresh=0 / rc_lookahead=50 / rc=2pass / mbtree=1 / bitrate=8890 / ratetol=1.0 / qcomp=0.60 / qpmin=0 / qpmax=69 / qpstep=4 / cplxblur=20.0 / qblur=0.5 / ip_ratio=1.40 / aq=1:1.00
Language : English
Default : Yes
Forced : No
DURATION : 02:30:26.125000000
NUMBER_OF_FRAMES : 216627
NUMBER_OF_BYTES : 10026556789
_STATISTICS_WRITING_APP : mkvmerge v7.6.0 ('Garden of Dreams') 64bit built on Feb 8 2015 13:04:34
_STATISTICS_WRITING_DATE_UT : 2015-02-25 19:31:35
_STATISTICS_TAGS : BPS DURATION NUMBER_OF_FRAMES NUMBER_OF_BYTES

Audio #1
ID : 2
Format : AC-3
Format/Info : Audio Coding 3
Mode extension : CM (complete main)
Format settings, Endianness : Big
Codec ID : A_AC3
Duration : 2h 30mn
Bit rate mode : Constant
Bit rate : 192 Kbps
Channel(s) : 2 channels
Channel positions : Front: L R
Sampling rate : 48.0 KHz
Bit depth : 16 bits
Compression mode : Lossy
Stream size : 207 MiB (2%)
Language : Ukrainian
Default : Yes
Forced : No

Audio #2
ID : 3
Format :
Format/Info : Digital Theater Systems
Mode : 16
Format settings, Endianness : Big
Codec ID : A_DTS
Duration : 2h 30mn
Bit rate mode : Constant
Bit rate : 1 509 Kbps
Channel(s) : 6 channels
Channel positions : Front: L C R, Side: L R, LFE
Sampling rate : 48.0 KHz
Bit depth : 24 bits
Compression mode : Lossy
Stream size : 1.59 GiB (14%)
Language : French
Default : No
Forced : No

Menu
00:00:00.000 : en:00:00:00.000
00:11:51.708 : en:00:11:51.708
00:25:33.792 : en:00:25:33.792
00:37:15.667 : en:00:37:15.667
00:47:39.167 : en:00:47:39.167
01:03:41.167 : en:01:03:41.167
01:17:14.583 : en:01:17:14.583
01:29:19.208 : en:01:29:19.208
01:42:12.000 : en:01:42:12.000
01:54:39.333 : en:01:54:39.333
02:04:57.375 : en:02:04:57.375
02:14:23.208 : en:02:14:23.208


Джерело:


 Трекер:    Зареєстрований   

Завантажити / скачати фільм українською



відео для новачків



 Зареєстрований:   2015-02-25 21:48
 Розмір:   11.13 GB 
 Оцінка фільму:   6.6/10 (Голосів: 8)
   
Інші релізи
ProgBassing 
Відео Гуртом - фільмокрай
Відео Гуртом - фільмокрай


З нами з: 08.03.08
Востаннє: 06.12.16
Повідомлень: 607

2015-04-06 20:37  
Обережно, переклад 3(три)а-сцаунд - французької не чути, звуковий баланс фільму спаплюжено, окремі голоси - відірви і викинь.

Кіно тупо для модо-схибних суб'єктів і просто шанувальників ІСЛ, дивився для ознайомлення - фільм якісний, але гіпер-гомський, на це теж зважайте! )

Ваш часовий пояс: GMT + 2 Години

Нова тема   Відповісти