Завантажити та скачати торренти українською


Посередник / Перемовник / The Negotiator (1998) 720p 2xUkr/Eng | Sub Multi

Нові коментарі

Нова тема   Відповісти
Автор Повідомлення
Anonymous 







2014-12-20 22:52  
Посередник / Перемовник / The Negotiator (1998) 720p 2xUkr/Eng | Sub Multi



Український постер



Жанр: бойовик, трилер, драма, кримінальний, детектив
Країна: Німеччина, США



Кінокомпанія: Regency Enterprises, Mandeville Films, New Regency Pictures, Monarchy Enterprises B.V., Taurus Film
Режисер: Фелікс Гері Грей / F. Gary Gray
Актори: Семюель Л. Джексон / Samuel L. Jackson, Кевін Спейсі / Kevin Spacey, Девід Морз / David Morse, Рон Ріфкін / Ron Rifkin, Джон Спенсер / John Spencer, Дж.Т. Волш / J.T. Walsh, Шиван Феллон / Siobhan Fallon, Пол Джаматті / Paul Giamatti та інші

Сюжет:
Перемовник - це поліцейський, що веде переговори зі злочинцями або терористами, які захопили заручників. Герой картини Денні Роумен - один з кращих "перемовників" в Чикаго. Напарник і близький друг Роумена повідомляє йому, що у Фонді допомоги інвалідам, членом правління якого був Денні, розкрадають гроші, а він знає, хто за цим стоїть. Це Терренс Найбаум з відділу внутрішніх розслідувань.

Друг призначив Денні зустріч в парку, маючи намір повідомити йому повні дані, але, коли Денні прийшов, той вже був застрелений. На наступний день до нього з обшуком приходить саме Найбаум. У Роумена знаходять банківські документи на великі суми грошей. Його звинувачують у вбивстві друга. Розуміючи, що шансів довести свою непричетність немає, Роумен бере Найбаума і ще трьох осіб в заручники.

Він не може довіряти поліцейським своєї ділянки, оскільки знає, що серед них вбивці його напарника, і вимагає, щоб як перемовник був запрошений фахівець з іншої дільниці. Чи зуміє Роумен довести свою невинність?


Тривалість: 02:19:34
Якість: 720p
Відео:
кодек:
розмір кадру: 1280x534
бітрейт: 6126 кбіт/с

Аудіо # 1:
мова: українська
переклад: двоголосий закадровий
ролі озвучили: Владислав Пупков і Ольга Радчук
кодек: 5.1
бітрейт: 384 кбіт/с

Аудіо # 2:
мова: українська
переклад: багатоголосий закадровий - Студія "ТВ+" на замовлення ICTV
ролі озвучили: Семюель Л. Джексон — Михайло Жонін, Кевін Спейсі — Михайло Тишин та один жіночий голос
кодек: 2.0
бітрейт: 192 кбіт/с

Аудіо # 3:
мова: англійська
переклад: оригінал
кодек: 5.1
бітрейт: 640 кбіт/с

Субтитри #1-9:
мова: англійська, данська, німецька, фінська, французька, італійська, норвезька, іспанська, шведська
тип: програмні (м'які)
формат: *.srt
MediaInfo
Код:
General
Unique ID                   : 251442313083133720039804366819370040466 (0xBD2A072B5AA0B716A09B53CD08E57C92)
Complete name               : The Negotiator (1998) [2xUkr,Eng sub.Multi] 720p [Hurtom].mkv
Format                      : Matroska
Format version              : Version 4 / Version 2
File size                   : 7.16 GiB
Duration                    : 2h 19mn
Overall bit rate            : 7 345 Kbps
Movie name                  : Посередник / Перемовник / The Negotiator (1998) BDRip720p 2xUkr,Eng sub.Multi [Hurtom]
Encoded date                : UTC 2014-12-21 00:34:50
Writing application         : mkvmerge v7.4.0 ('Circles') 64bit built on Dec 12 2014 12:19:56
Writing library             : libebml v1.3.0 + libmatroska v1.4.1
DURATION                    : 02:19:34.464000000
NUMBER_OF_FRAMES            : 261702
NUMBER_OF_BYTES             : 200987136
_STATISTICS_WRITING_APP     : mkvmerge v7.4.0 ('Circles') 64bit built on Dec 12 2014 12:19:56
_STATISTICS_WRITING_DATE_UT : 2014-12-21 00:34:50
_STATISTICS_TAGS            : BPS DURATION NUMBER_OF_FRAMES NUMBER_OF_BYTES

Video
ID                          : 1
Format                      : AVC
Format/Info                 : Advanced Video Codec
Format profile              : [email protected]
Format settings, CABAC      : Yes
Format settings, ReFrames   : 8 frames
Codec ID                    : V_MPEG4/ISO/AVC
Duration                    : 2h 19mn
Bit rate                    : 6 126 Kbps
Width                       : 1 280 pixels
Height                      : 534 pixels
Display aspect ratio        : 2.40:1
Frame rate mode             : Constant
Frame rate                  : 23.976 fps
Color space                 : YUV
Chroma subsampling          : 4:2:0
Bit depth                   : 8 bits
Scan type                   : Progressive
Bits/(Pixel*Frame)          : 0.374
Stream size                 : 5.83 GiB (81%)
Title                       : Посередник / Перемовник / The Negotiator (1998) 720p [RuDE]
Writing library             : core 75 r1259M dd026f2
Encoding settings           : cabac=1 / ref=8 / deblock=1:-3:-3 / analyse=0x3:0x113 / me=umh / subme=9 / psy=1 / psy_rd=1.0:0.2 / mixed_ref=1 / me_range=24 / chroma_me=1 / trellis=2 / 8x8dct=1 / cqm=0 / deadzone=21,11 / chroma_qp_offset=-3 / threads=6 / nr=0 / decimate=1 / mbaff=0 / bframes=6 / b_pyramid=1 / b_adapt=2 / b_bias=0 / direct=3 / wpredb=1 / keyint=250 / keyint_min=25 / scenecut=40 / rc_lookahead=0 / rc=2pass / mbtree=0 / bitrate=6126 / ratetol=1.0 / qcomp=0.60 / qpmin=10 / qpmax=51 / qpstep=4 / cplxblur=20.0 / qblur=0.5 / vbv_maxrate=50000 / vbv_bufsize=50000 / ip_ratio=1.40 / pb_ratio=1.30 / aq=1:0.70 / pulldown=0 / nal_hrd=0
Language                    : English
Default                     : Yes
Forced                      : No
DURATION                    : 02:19:34.526000000
NUMBER_OF_FRAMES            : 200788
NUMBER_OF_BYTES             : 6412438966
_STATISTICS_WRITING_APP     : mkvmerge v7.4.0 ('Circles') 64bit built on Dec 12 2014 12:19:56
_STATISTICS_WRITING_DATE_UT : 2014-12-21 00:34:50
_STATISTICS_TAGS            : BPS DURATION NUMBER_OF_FRAMES NUMBER_OF_BYTES

Audio #1
ID                          : 2
Format                      : AC-3
Format/Info                 : Audio Coding 3
Mode extension              : CM (complete main)
Format settings, Endianness : Big
Codec ID                    : A_AC3
Duration                    : 2h 19mn
Bit rate mode               : Constant
Bit rate                    : 384 Kbps
Channel(s)                  : 6 channels
Channel positions           : Front: L C R, Side: L R, LFE
Sampling rate               : 48.0 KHz
Bit depth                   : 16 bits
Compression mode            : Lossy
Stream size                 : 383 MiB (5%)
Title                       : DVO [2+2] 5.1 384 kbps [Hurtom-bodia87]
Language                    : Ukrainian
Default                     : Yes
Forced                      : No

Audio #2
ID                          : 3
Format                      : AC-3
Format/Info                 : Audio Coding 3
Mode extension              : CM (complete main)
Format settings, Endianness : Big
Codec ID                    : A_AC3
Duration                    : 2h 19mn
Bit rate mode               : Constant
Bit rate                    : 192 Kbps
Channel(s)                  : 2 channels
Channel positions           : Front: L R
Sampling rate               : 48.0 KHz
Bit depth                   : 16 bits
Compression mode            : Lossy
Stream size                 : 192 MiB (3%)
Title                       : MVO [ICTV] 2.0 192 kbps [torrents.net.ua; Hurtom-Romczyk]
Language                    : Ukrainian
Default                     : No
Forced                      : No

Audio #3
ID                          : 4
Format                      : AC-3
Format/Info                 : Audio Coding 3
Mode extension              : CM (complete main)
Format settings, Endianness : Big
Codec ID                    : A_AC3
Duration                    : 2h 19mn
Bit rate mode               : Constant
Bit rate                    : 640 Kbps
Channel(s)                  : 6 channels
Channel positions           : Front: L C R, Side: L R, LFE
Sampling rate               : 48.0 KHz
Bit depth                   : 16 bits
Compression mode            : Lossy
Stream size                 : 639 MiB (9%)
Title                       : Original 5.1 640 kbps
Language                    : English
Default                     : No
Forced                      : No

Text #1
ID                          : 5
Format                      : UTF-8
Codec ID                    : S_TEXT/UTF8
Codec ID/Info               : UTF-8 Plain Text
Language                    : English
Default                     : No
Forced                      : No

Text #2
ID                          : 6
Format                      : UTF-8
Codec ID                    : S_TEXT/UTF8
Codec ID/Info               : UTF-8 Plain Text
Language                    : Danish
Default                     : No
Forced                      : No

Text #3
ID                          : 7
Format                      : UTF-8
Codec ID                    : S_TEXT/UTF8
Codec ID/Info               : UTF-8 Plain Text
Language                    : Dutch
Default                     : No
Forced                      : No

Text #4
ID                          : 8
Format                      : UTF-8
Codec ID                    : S_TEXT/UTF8
Codec ID/Info               : UTF-8 Plain Text
Language                    : Finnish
Default                     : No
Forced                      : No

Text #5
ID                          : 9
Format                      : UTF-8
Codec ID                    : S_TEXT/UTF8
Codec ID/Info               : UTF-8 Plain Text
Language                    : French
Default                     : No
Forced                      : No

Text #6
ID                          : 10
Format                      : UTF-8
Codec ID                    : S_TEXT/UTF8
Codec ID/Info               : UTF-8 Plain Text
Language                    : Italian
Default                     : No
Forced                      : No

Text #7
ID                          : 11
Format                      : UTF-8
Codec ID                    : S_TEXT/UTF8
Codec ID/Info               : UTF-8 Plain Text
Language                    : Norwegian
Default                     : No
Forced                      : No

Text #8
ID                          : 12
Format                      : UTF-8
Codec ID                    : S_TEXT/UTF8
Codec ID/Info               : UTF-8 Plain Text
Language                    : Spanish
Default                     : No
Forced                      : No

Text #9
ID                          : 13
Format                      : UTF-8
Codec ID                    : S_TEXT/UTF8
Codec ID/Info               : UTF-8 Plain Text
Language                    : Swedish
Default                     : No
Forced                      : No




Джерела та подяки: & &
ріп відео, оригінальні звук та субтитри - RuDE (HDbits); українські доріжки - bodia87 (1), torrents.net.ua (2); українізований постер - Soyer; фільмографії акторів та інформація про озвучення - Віктор, Neo777 (всі - Гуртом).


ЗАЛИШАЙТЕСЬ ЯКОМОГА ДОВШЕ НА РОЗДАЧІ!

СКАЧАВ САМ - ДАЙ СКАЧАТИ ІНШИМ


Срібний реліз (на рейтинг впливає 50% завантаженого)
 Трекер:    Зареєстрований   

Завантажити / скачати фільм українською



відео для новачків



 Зареєстрований:   2014-12-21 02:55
 Розмір:   7.16 GB 
 Оцінка фільму:   5.2/10 (Голосів: 20)
   
Anonymous 







2014-12-20 23:38  
Реліз у 1080p вже готовий - http://toloka.to/t61744
student1508 
Поважний учасник


З нами з: 27.02.10
Востаннє: 02.12.16
Повідомлень: 213

2014-12-27 22:00  
Фільм клас, тримає в напрузі аж до самого кінця.
Акторський склад і ігра на висоті.
А ось таке типове закінчення притаманне майже всім американським фільмам трохи зіпсувало мені кайф від перегляду.
9 з 10.

Ваш часовий пояс: GMT + 2 Години

Нова тема   Відповісти