Завантажити та скачати торренти українською


Посередник / Перемовник / The Negotiator (1998) 1080p 2xUkr/Eng | Sub Eng

Нові коментарі

Нова тема   Відповісти
Автор Повідомлення
Anonymous 







2014-12-20 18:10  
Посередник / Перемовник / The Negotiator (1998) 1080p 2xUkr/Eng | Sub Eng



Український постер



Жанр: бойовик, трилер, драма, кримінальний, детектив
Країна: Німеччина, США



Кінокомпанія: Regency Enterprises, Mandeville Films, New Regency Pictures, Monarchy Enterprises B.V., Taurus Film
Режисер: Фелікс Гері Грей / F. Gary Gray
Актори: Семюель Л. Джексон / Samuel L. Jackson, Кевін Спейсі / Kevin Spacey, Девід Морз / David Morse, Рон Ріфкін / Ron Rifkin, Джон Спенсер / John Spencer, Дж.Т. Волш / J.T. Walsh, Шиван Феллон / Siobhan Fallon, Пол Джаматті / Paul Giamatti та інші

Сюжет:
Перемовник - це поліцейський, що веде переговори зі злочинцями або терористами, які захопили заручників. Герой картини Денні Роумен - один з кращих "перемовників" в Чикаго. Напарник і близький друг Роумена повідомляє йому, що у Фонді допомоги інвалідам, членом правління якого був Денні, розкрадають гроші, а він знає, хто за цим стоїть. Це Терренс Найбаум з відділу внутрішніх розслідувань.

Друг призначив Денні зустріч в парку, маючи намір повідомити йому повні дані, але, коли Денні прийшов, той вже був застрелений. На наступний день до нього з обшуком приходить саме Найбаум. У Роумена знаходять банківські документи на великі суми грошей. Його звинувачують у вбивстві друга. Розуміючи, що шансів довести свою непричетність немає, Роумен бере Найбаума і ще трьох осіб в заручники.

Він не може довіряти поліцейським своєї ділянки, оскільки знає, що серед них вбивці його напарника, і вимагає, щоб як перемовник був запрошений фахівець з іншої дільниці. Чи зуміє Роумен довести свою невинність?


Тривалість: 02:19:34
Якість: 1080p
Відео:
кодек:
розмір кадру: 1920x800
бітрейт: 11925 кбіт/с

Аудіо # 1:
мова: українська
переклад: двоголосий закадровий
ролі озвучили: Владислав Пупков і Ольга Радчук
кодек: 5.1
бітрейт: 384 кбіт/с

Аудіо # 2:
мова: українська
переклад: багатоголосий закадровий - Студія "ТВ+" на замовлення ICTV
ролі озвучили: Семюель Л. Джексон — Михайло Жонін, Кевін Спейсі — Михайло Тишин та один жіночий голос
кодек: 2.0
бітрейт: 192 кбіт/с

Аудіо # 3:
мова: англійська
переклад: оригінал
кодек: 5.1
бітрейт: 640 кбіт/с

Субтитри:
мова: англійська
тип: програмні (м'які)
формат: *.srt

Збережено оригінальні розділи, як на Blu-ray.
MediaInfo
Код:
General
Unique ID                   : 172774838026568184596554702654428331613 (0x81FB39320036CF659FFF94D010FABE5D)
Complete name               : The Negotiator (1998) [2xUkr,Eng sub.Eng] 1080p [Hurtom & HDClub].mkv
Format                      : Matroska
Format version              : Version 4 / Version 2
File size                   : 12.8 GiB
Duration                    : 2h 19mn
Overall bit rate            : 13.1 Mbps
Movie name                  : Посередник / Перемовник / The Negotiator (1998) 1080p 2xUkr,Eng sub.Eng [Hurtom & HDClub]
Encoded date                : UTC 2014-12-20 21:04:49
Writing application         : mkvmerge v7.4.0 ('Circles') 64bit built on Dec 12 2014 12:19:56
Writing library             : libebml v1.3.0 + libmatroska v1.4.1
DURATION                    : 02:11:28.087000000
NUMBER_OF_FRAMES            : 1817
NUMBER_OF_BYTES             : 72529
_STATISTICS_WRITING_APP     : mkvmerge v7.4.0 ('Circles') 64bit built on Dec 12 2014 12:19:56
_STATISTICS_WRITING_DATE_UT : 2014-12-20 21:04:49
_STATISTICS_TAGS            : BPS DURATION NUMBER_OF_FRAMES NUMBER_OF_BYTES

Video
ID                          : 1
Format                      : AVC
Format/Info                 : Advanced Video Codec
Format profile              : [email protected]
Format settings, CABAC      : Yes
Format settings, ReFrames   : 5 frames
Codec ID                    : V_MPEG4/ISO/AVC
Duration                    : 2h 19mn
Bit rate                    : 11.9 Mbps
Width                       : 1 920 pixels
Height                      : 800 pixels
Display aspect ratio        : 2.40:1
Frame rate mode             : Constant
Frame rate                  : 23.976 fps
Color space                 : YUV
Chroma subsampling          : 4:2:0
Bit depth                   : 8 bits
Scan type                   : Progressive
Bits/(Pixel*Frame)          : 0.324
Stream size                 : 11.4 GiB (89%)
Title                       : Посередник / Перемовник / The Negotiator (1998) 1080p [HDClub-DoroshDan]
Writing library             : core 142 r2491 24e4fed
Encoding settings           : cabac=1 / ref=5 / deblock=1:-3:-3 / analyse=0x3:0x113 / me=umh / subme=11 / psy=1 / psy_rd=1.00:0.00 / mixed_ref=1 / me_range=24 / chroma_me=1 / trellis=2 / 8x8dct=1 / cqm=0 / deadzone=21,11 / fast_pskip=0 / chroma_qp_offset=-2 / threads=12 / lookahead_threads=3 / sliced_threads=0 / nr=0 / decimate=0 / interlaced=0 / bluray_compat=0 / constrained_intra=0 / bframes=12 / b_pyramid=2 / b_adapt=2 / b_bias=0 / direct=3 / weightb=1 / open_gop=0 / weightp=2 / keyint=250 / keyint_min=23 / scenecut=40 / intra_refresh=0 / rc=2pass / mbtree=0 / bitrate=11925 / ratetol=1.0 / qcomp=0.60 / qpmin=10 / qpmax=51 / qpstep=4 / cplxblur=20.0 / qblur=0.5 / ip_ratio=1.40 / pb_ratio=1.30 / aq=1:1.00
Language                    : English
Default                     : Yes
Forced                      : No

Audio #1
ID                          : 2
Format                      : AC-3
Format/Info                 : Audio Coding 3
Mode extension              : CM (complete main)
Format settings, Endianness : Big
Codec ID                    : A_AC3
Duration                    : 2h 19mn
Bit rate mode               : Constant
Bit rate                    : 384 Kbps
Channel(s)                  : 6 channels
Channel positions           : Front: L C R, Side: L R, LFE
Sampling rate               : 48.0 KHz
Bit depth                   : 16 bits
Compression mode            : Lossy
Stream size                 : 383 MiB (3%)
Title                       : DVO [2+2] 5.1 384 kbps [Hurtom-bodia87]
Language                    : Ukrainian
Default                     : Yes
Forced                      : No

Audio #2
ID                          : 3
Format                      : AC-3
Format/Info                 : Audio Coding 3
Mode extension              : CM (complete main)
Format settings, Endianness : Big
Codec ID                    : A_AC3
Duration                    : 2h 19mn
Bit rate mode               : Constant
Bit rate                    : 192 Kbps
Channel(s)                  : 2 channels
Channel positions           : Front: L R
Sampling rate               : 48.0 KHz
Bit depth                   : 16 bits
Compression mode            : Lossy
Stream size                 : 192 MiB (1%)
Title                       : MVO [ICTV] 2.0 192 kbps [torrents.net.ua; Hurtom-Romczyk]
Language                    : Ukrainian
Default                     : No
Forced                      : No

Audio #3
ID                          : 4
Format                      : AC-3
Format/Info                 : Audio Coding 3
Mode extension              : CM (complete main)
Format settings, Endianness : Big
Codec ID                    : A_AC3
Duration                    : 2h 19mn
Bit rate mode               : Constant
Bit rate                    : 640 Kbps
Channel(s)                  : 6 channels
Channel positions           : Front: L C R, Side: L R, LFE
Sampling rate               : 48.0 KHz
Bit depth                   : 16 bits
Compression mode            : Lossy
Stream size                 : 639 MiB (5%)
Title                       : Original 5.1 640 kbps
Language                    : English
Default                     : No
Forced                      : No

Text
ID                          : 5
Format                      : UTF-8
Codec ID                    : S_TEXT/UTF8
Codec ID/Info               : UTF-8 Plain Text
Title                       : SDH
Language                    : English
Default                     : No
Forced                      : No

Menu
00:00:00.000                : :00:00:00.000
00:02:32.150                : :00:02:32.150
00:06:42.568                : :00:06:42.568
00:09:56.095                : :00:09:56.095
00:12:10.520                : :00:12:10.520
00:15:04.528                : :00:15:04.528
00:18:33.862                : :00:18:33.862
00:23:52.638                : :00:23:52.638
00:26:27.168                : :00:26:27.168
00:30:53.893                : :00:30:53.893
00:34:28.983                : :00:34:28.983
00:38:14.041                : :00:38:14.041
00:42:33.676                : :00:42:33.676
00:46:05.137                : :00:46:05.137
00:50:02.582                : :00:50:02.582
00:53:30.582                : :00:53:30.582
00:56:40.230                : :00:56:40.230
00:59:55.550                : :00:59:55.550
01:02:32.957                : :01:02:32.957
01:05:20.082                : :01:05:20.082
01:08:21.930                : :01:08:21.930
01:10:46.325                : :01:10:46.325
01:13:38.205                : :01:13:38.205
01:17:25.182                : :01:17:25.182
01:21:29.341                : :01:21:29.341
01:24:39.407                : :01:24:39.407
01:29:54.639                : :01:29:54.639
01:34:25.033                : :01:34:25.033
01:35:47.408                : :01:35:47.408
01:41:47.643                : :01:41:47.643
01:46:09.905                : :01:46:09.905
01:50:14.482                : :01:50:14.482
01:53:52.492                : :01:53:52.492
01:58:16.589                : :01:58:16.589
02:02:17.538                : :02:02:17.538
02:05:43.077                : :02:05:43.077
02:09:11.869                : :02:09:11.869
02:10:59.476                : :02:10:59.476
02:14:04.703                : :02:14:04.703




Джерела та подяки: &
ріп відео, оригінальні звук та субтитри - DoroshDan (HDClub); українські доріжки - bodia87 (1), torrents.net.ua (2); українізований постер - Soyer; фільмографії акторів та інформація про озвучення - Віктор, Neo777 (всі - Гуртом).


ЗАЛИШАЙТЕСЬ ЯКОМОГА ДОВШЕ НА РОЗДАЧІ!

СКАЧАВ САМ - ДАЙ СКАЧАТИ ІНШИМ


Срібний реліз (на рейтинг впливає 50% завантаженого)
 Трекер:    Зареєстрований   

Завантажити / скачати фільм українською



відео для новачків



 Зареєстрований:   2014-12-20 23:35
 Розмір:   12.81 GB 
 Оцінка фільму:   4.3/10 (Голосів: 16)
   
EduardGol 
Поважний учасник


З нами з: 03.10.13
Востаннє: 05.12.16
Повідомлень: 162

2016-10-08 12:20  
Вже традиційно якісне кіно зі Спейсі.
Ваш часовий пояс: GMT + 2 Години

Нова тема   Відповісти